Cheap Trick - Sgt. Pepper Live (2009)

Download Now

Cheap Trick - Sgt. Pepper Live (2009)

Cheap Trick - Sgt. Pepper Live (2009)
EAC Rip | FLAC (Img) + Cue + Log ~ 328 Mb | MP3 CBR320 ~ 111 Mb
Scans (PNG, 600 dpi) ~ 171 Mb | RAR 5% Recovery
Pop-Rock, Power Pop, Hard Rock, AOR | Cheap Trick Unlimited/Big3 Records #804983-700021

"Sgt. Pepper Live is a performance by American band Cheap Trick with a full orchestra which was released on 25 August 2009, in commemoration of the forty-second anniversary of the release of the historic album Sgt. Pepper's Lonely Hearts Club Band by The Beatles. Both a live album and a companion DVD of the performance were released. The album was engineered by Geoff Emerick. Cheap Trick performed the "Sgt. Pepper Live" show at the Las Vegas Hilton for two weeks in September 2009..."

Official Website | Wiki | Discogs | All Music
***************

Cheap Trick - Sgt. Pepper Live (2009)

Track List:

01. Sgt. Pepper's Lonely Hearts Club Band [01:56]
02. With A Little Help From My Friends [02:38]
03. Lucy In The Sky With Diamonds [03:55]
04. Getting Better [02:37]
05. Fixing A Hole [03:17]
06. She's Leaving Home [03:53]
07. Being For The Benefit Of Mr. Kite! [02:47]
08. Within You Without You [05:36]
09. When I'm Sixty-Four [02:51]
10. Lovely Rita [02:37]
11. Good Morning Good Morning [02:37]
12. Sgt. Pepper's Lonely Hearts Club Band (Reprise) [01:16]
13. A Day In The Life [04:42]
14. Medley Song [05:44]

Exact Audio Copy V1.0 beta 3 from 29. August 2011

EAC extraction logfile from 24. July 2012, 15:36

Cheap Trick / Sgt. Pepper Live

Used drive : Optiarc DVD-ROM DDU1675S Adapter: 3 ID: 0

Read mode : Secure
Utilize accurate stream : Yes
Defeat audio cache : Yes
Make use of C2 pointers : No

Read offset correction

: 6
Overread into Lead-In and Lead-Out : No
Fill up missing offset samples with silence : Yes
Delete leading and trailing silent blocks : No
Null samples used in CRC calculations : Yes
Used interface
: Native Win32 interface for Win NT & 2000

Used output format : User Defined Encoder
Selected bitrate : 1024 kBit/s
Quality : High
Add ID3 tag : No
Command line compressor : C:\Program Files (x86)\Exact Audio Copy\Flac\flac.exe
Additional command line options : -V -8 -T "Date=%year%" -T "Genre=%genre%" %source%

TOC of the extracted CD Track | Start | Length | Start sector | End sector
1 | 0:00.00 | 1:55.40 | 0 | 8664 2 | 1:55.40 | 2:37.02 | 8665 | 20441 3 | 4:32.42 | 3:54.27 | 20442 | 38018 4 | 8:26.69 | 2:36.42 | 38019 | 49760 5 | 11:03.36 | 3:16.43 | 49761 | 64503 6 | 14:20.04 | 3:52.14 | 64504 | 81917 7 | 18:12.18 | 2:46.63 | 81918 | 94430 8 | 20:59.06 | 5:35.65 | 94431 | 119620 9 | 26:34.71 | 2:50.01 | 119621 | 132371
10 | 29:24.72 | 2:36.27 | 132372 | 144098
11 | 32:01.24 | 2:36.20 | 144099 | 155818
12 | 34:37.44 | 1:15.34 | 155819 | 161477
13 | 35:53.03 | 4:41.28 | 161478 | 182580
14 | 40:34.31 | 5:43.34 | 182581 | 208339

Range status and errors

Selected range Filename F:\Torrent\# MY\###\Cheap Trick - Discography (1977-2009)\2009 - Sgt. Pepper Live (Big 3 Records, 804983-700021, U.S.A.)\Cheap Trick - Sgt. Pepper Live.wav Peak level 100.0 %
Extraction speed 7.7 X
Range quality 99.9 %
Test CRC ACFC3040
Copy CRC ACFC3040
Copy OK

No errors occurred


AccurateRip summary

Track 1 not present in database
Track 2 not present in database
Track 3 not present in database
Track 4 not present in database
Track 5 not present in database
Track 6 not present in database
Track 7 not present in database
Track 8 not present in database
Track 9 not present in database
Track 10 not present in database
Track 11 not present in database
Track 12 not present in database
Track 13 not present in database
Track 14 not present in database

None of the tracks are present in the AccurateRip database

End of status report

==== Log checksum 223B9D3AD86256836D01CC08F0978231A714DD1A096930E1648458E401CB503C ====

foobar2000 1.2.6 / Dynamic Range Meter 1.1.1
log date: 2015-06-17 15:39:06

------
Analyzed: Cheap Trick / Sgt. Pepper Live
------

DR Peak RMS Duration Track
------
DR8 -0.50 dB -10.09 dB 1:56 01-Sgt. Pepper's Lonely Hearts Club Band
DR8 -0.55 dB -9.91 dB 2:37 02-With A Little Help From My Friends
DR7 -0.38 dB -9.25 dB 3:54 03-Lucy In The Sky With Diamonds
DR7 -0.29 dB -8.38 dB 2:37 04-Getting Better
DR8 -0.32 dB -9.58 dB 3:17 05-Fixing A Hole
DR8 -0.55 dB -11.36 dB 3:52 06-She's Leaving Home
DR8 0.00 dB -10.36 dB 2:47 07-Being For The Benefit Of Mr. Kite!
DR13 -0.01 dB -16.00 dB 5:36 08-Within You Without You
DR9 -0.55 dB -10.90 dB 2:50 09-When I'm Sixty-Four
DR7 -0.09 dB -9.09 dB 2:36 10-Lovely Rita
DR7 -0.42 dB -8.46 dB 2:36 11-Good Morning Good Morning
DR7 -0.34 dB -8.50 dB 1:15 12-Sgt. Pepper's Lonely Hearts Club Band (Reprise)
DR7 0.00 dB -9.89 dB 4:41 13-A Day In The Life
DR8 -0.46 dB -10.56 dB 5:43 14-Medley Song
------

Number of tracks: 14
Official DR value: DR8

Samplerate: 44100 Hz
Channels: 2
Bits per sample: 16
Bitrate: 943 kbps
Codec: FLAC

[CUETools log; Date: 17.06.2015 15:38:40; Version: 2.1.5]
[CTDB TOCID: AXLEqkpLwki7F4kQUXO_PJyNHu4-] found.
Track | CTDB Status
1 | (18/18) Accurately ripped
2 | (18/18) Accurately ripped
3 | (18/18) Accurately ripped
4 | (18/18) Accurately ripped
5 | (17/18) Accurately ripped
6 | (17/18) Accurately ripped
7 | (18/18) Accurately ripped
8 | (18/18) Accurately ripped
9 | (18/18) Accurately ripped
10 | (18/18) Accurately ripped
11 | (18/18) Accurately ripped
12 | (18/18) Accurately ripped
13 | (18/18) Accurately ripped
14 | (17/18) Accurately ripped
[AccurateRip ID: 00164f22-00f19046-c40ad90e] found.
Track [ CRC | V2 ] Status
01 [897d43d8|32bd69b7] (26+20/46) Accurately ripped
02 f4004fb|5b3a9e04 (26+20/46) Accurately ripped
03 [388673ab|4faa27c4] (26+21/47) Accurately ripped
04 [d0d1de3c|74a99f83] (26+21/47) Accurately ripped
05 [3a2ebce3|012502b3] (26+21/47) Accurately ripped
06 [8f1a96d7|5a96245a] (26+21/47) Accurately ripped
07 [83415ff6|ca68c7fa] (26+21/47) Accurately ripped
08 [ae74f8ed|a71fccf7] (26+20/46) Accurately ripped
09 [e1dd7ed4|fb1332d3] (26+21/47) Accurately ripped
10 [e259e482|150c97d4] (26+21/47) Accurately ripped
11 [caae8f20|0e1968f3] (26+21/47) Accurately ripped
12 [33c29adf|7954d01e] (26+21/47) Accurately ripped
13 [a2700fc2|4f767d08] (26+21/47) Accurately ripped
14 [3d806c9e|f9fcacdf] (26+21/47) Accurately ripped

Track Peak [ CRC32 ] [W/O NULL] [ LOG ]
-- 100,0 [ACFC3040] [59527CDB] CRC32
01 94,4 [FD329589] [C591AD2B]
02 93,8 [D696AC39] [E93A8BE6]
03 95,7 B6EEE12 [047558ED]
04 96,7 [F96014F9] [90852C27]
05 96,3 [99A0785B] [67047475]
06 93,8 [7DE9C1C4] [F198EDA6]
07 100,0 [E5093CE6] [F5DABD1F]
08 99,8 [F86542B9] [30536551]
09 93,8 [6F8C6D74] [CEEC9B19]
10 98,9 [23A4D003] [F73DB4B2]
11 95,2 [FAD88148] [FA7F5BD3]
12 96,1 [34602755] [2D539FFF]
13 99,9 [CDEB00E5] [DC62DB5F]
14 94,7 [C47C257A] [919321D5]

Cheap Trick - Sgt. Pepper Live (2009)


DOWNLOAD LINKS:
Buy Premium To Support Me & Get Resumable Support & Max Speed


Links are Interchangeable - No Password - Single Extraction

Direct Download

Tags: Pepper

Cheap Trick - Sgt. Pepper Live (2009) Download via Hotfile Rapidshare Fileserve Megaupload & FileSonic, Cheap Trick - Sgt. Pepper Live (2009) free torrent downloads included crack, serial, keygen.


Attention!Information

Members of Guest cannot leave comments.