The Police - Synchronicity (1983) [MFSL Gold CD - January 1989] RE-UP

Download Now

The Police - Synchronicity (1983) [MFSL Gold CD - January 1989] RE-UP

The Police - Synchronicity (1983) [MFSL Gold CD - January 1989]
EAC-FLAC Image with CUE & LOG - 275 MB | Full Scans | MP3 CBR 320 Kbps - 111 MB
Pop Rock / New Wave | TT - 44:27 minutes | Label: Mobile Fidelity Sound Lab # UDCD-511

The Police were an English rock band formed in London in 1977. The Police became globally popular in the late 1970s and are generally regarded as one of the first New Wave groups to achieve mainstream success, playing a style of rock that was influenced by punk, reggae, and jazz. Synchronicity is the fifth and final studio album by The Police, released in 1983. The band's most popular release, Synchronicity includes the hit songs "Every Breath You Take". This album was number 1 on both the UK Albums Chart and the US Billboard 200, and sold over 8,000,000 copies in the US.
"allmusic.com says: Simultaneously more pop-oriented and experimental than either Ghost in the Machine or Zenyatta Mondatta, Synchronicity made the Police superstars, generating no less than five hit singles. With the exception of "Synchronicity II," which sounds disarmingly like a crappy Billy Idol song, every one of those singles is a classic. "Every Breath You Take" has a seductive, rolling beat masking its maliciousness, "King of Pain" and "Wrapped Around Your Finger" are devilishly infectious new wave singles, and "Tea in the Sahara" is hypnotic in its measured, melancholy choruses. But, like so many other Police albums, these songs are surrounded by utterly inconsequential filler. This time, the group relies heavily on jazzy textures for Sting's songs, which only works on the jumping, marimba-driven "Synchronicity I." Then, as if to prove that the Police were still a band, there's one song apiece from Stewart Copeland and Andy Summers, both of which are awful, as if they're trying to sabotage the album. Since they arrive on the first side, which is devoid of singles, they do, making the album sound like two EPs: one filled with first-rate pop, and one an exercise in self-indulgence. While the hits are among Sting's best, they also illustrate that he was ready to leave the Police behind for a solo career, which is exactly what he did."


Tracks:

01. Synchronicity I
02. Walking In Your Footsteps
03. O My God
04. Mother
05. Miss Gradenko
06. Synchronicity II
07. Every Breath You Take
08. King Of Pain
09. Wrapped Around Your Finger
10. Tea In The Sahara
11. Murder By Numbers

Produced by Hugh Padgham & The Police.
Recorded at AIR Studios, Montserrat and Le Studio, Quebec, Canada.

Thanks to the Original ripper!

Exact Audio Copy V0.99 prebeta 3 from 28. July 2007

EAC extraction logfile from 31. May 2009, 13:29

The Police / Synchronicity

Used drive : _NEC DVD_RW ND-2500A Adapter: 3 ID: 1

Read mode : Secure
Utilize accurate stream : Yes
Defeat audio cache : Yes
Make use of C2 pointers : No

Read offset correction

: 48
Overread into Lead-In and Lead-Out : No
Fill up missing offset samples with silence : Yes
Delete leading and trailing silent blocks : No
Null samples used in CRC calculations : Yes
Used interface
: Native Win32 interface for Win NT & 2000

Used output format : User Defined Encoder
Selected bitrate : 320 kBit/s
Quality : High
Add ID3 tag : No
Command line compressor : C:\Program Files\Exact Audio Copy\Flac\flac.exe
Additional command line options : -V -8 -T "artist=%a" -T "title=%t" -T "album=%g" -T "date=%y" -T "tracknumber=%n" -T "genre=%m" %s

TOC of the extracted CD Track | Start | Length | Start sector | End sector
1 | 0:00.37 | 3:26.50 | 37 | 15536 2 | 3:27.12 | 3:36.53 | 15537 | 31789 3 | 7:03.65 | 4:02.17 | 31790 | 49956 4 | 11:06.07 | 3:05.50 | 49957 | 63881 5 | 14:11.57 | 2:00.00 | 63882 | 72881 6 | 16:11.57 | 5:02.35 | 72882 | 95566 7 | 21:14.17 | 4:14.08 | 95567 | 114624 8 | 25:28.25 | 4:58.70 | 114625 | 137044 9 | 30:27.20 | 5:13.57 | 137045 | 160576
10 | 35:41.02 | 4:11.65 | 160577 | 179466
11 | 39:52.67 | 4:34.63 | 179467 | 200079

Range status and errors

Selected range Filename C:\EACrips\The Police - Synchronicity.wav Peak level 97.7 %
Range quality 100.0 %
Test CRC FA4B3ED3
Copy CRC FA4B3ED3
Copy OK

No errors occurred


AccurateRip summary

Track 1 accurately ripped (confidence 3) [3A65AADB]
Track 2 accurately ripped (confidence 3) [2630F712]
Track 3 accurately ripped (confidence 3) [9F96D5AD]
Track 4 accurately ripped (confidence 3) [422757E2]
Track 5 accurately ripped (confidence 3) [8A4ABB55]
Track 6 accurately ripped (confidence 3) [56B07461]
Track 7 accurately ripped (confidence 3) [E88AE9AC]
Track 8 accurately ripped (confidence 3) [94DA9174]
Track 9 accurately ripped (confidence 3) [2B26DB82]
Track 10 accurately ripped (confidence 3) [E9D7EDDA]
Track 11 accurately ripped (confidence 3) [69E5F9D6]

All tracks accurately ripped

End of status report

Pregap length 00:00:37.
[AccurateRip ID: 00111ca6-0096ce74-980a6b0b] found.
Track [ CRC ] Status
01 [3a65aadb] (05/21) Accurately ripped
02 [2630f712] (05/21) Accurately ripped
03 [9f96d5ad] (05/21) Accurately ripped
04 [422757e2] (06/22) Accurately ripped
05 [8a4abb55] (06/22) Accurately ripped
06 [56b07461] (05/21) Accurately ripped
07 [e88ae9ac] (05/21) Accurately ripped
08 [94da9174] (05/21) Accurately ripped
09 [2b26db82] (05/21) Accurately ripped
10 [e9d7edda] (05/21) Accurately ripped
11 [69e5f9d6] (05/20) Accurately ripped
AccurateRip v2:
01 a2d8fb6 (03/21) Accurately ripped
02 [0241381b] (03/21) Accurately ripped
03 [40afe4d8] (03/21) Accurately ripped
04 [76380065] (03/22) Accurately ripped
05 [c90447e1] (03/22) Accurately ripped
06 [159d528b] (03/21) Accurately ripped
07 [4097c113] (03/21) Accurately ripped
08 [c567a3ae] (03/21) Accurately ripped
09 [05c61e0e] (03/21) Accurately ripped
10 [f829efa3] (03/21) Accurately ripped
11 [fc3e601d] (03/20) Accurately ripped
Offsetted by -482:
01 [0b9f4241] (11/21) Accurately ripped
02 [6d875804] (11/21) Accurately ripped
03 [46aff7dd] (11/21) Accurately ripped
04 [6686c36c] (11/22) Accurately ripped
05 [0b42e939] (11/22) Accurately ripped
06 [e9ce10cb] (11/21) Accurately ripped
07 [f343f565] (11/21) Accurately ripped
08 [3b4624bb] (11/21) Accurately ripped
09 [02e14cf0] (11/21) Accurately ripped
10 [f83ea8bc] (11/21) Accurately ripped
11 [9bf54614] (10/20) Accurately ripped

Track Peak [ CRC32 ] [W/O NULL] [ LOG ]
-- 97,7 [FA4B3ED3] [DC998ABB] CRC32
01 89,1 [E4A86230] [889FCBAB]
02 82,7 7531387 [9DAB3962]
03 89,1 [436AC310] [5893B4EA]
04 76,9 [59887D7D] [21AB4A3A]
05 89,1 [62188316] [89B996F7]
06 89,1 [1686EFE9] [72768B51]
07 93,4 FE09AC0 [29C6550D]
08 86,9 [9F9C5959] [AF92E6B2]
09 88,0 [C3D850F6] [38DBDEBE]
10 86,7 [03B8CFCC] [1B2D11FF]
11 97,7 [16CBA6E1] [F34652E0]
DOWNLOAD LINKS:
Buy Premium To Support Me & Get Resumable Support & Max Speed


Links are Interchangeable - No Password - Single Extraction

Direct Download

Tags: Police, Synchronicity

The Police - Synchronicity (1983) [MFSL Gold CD - January 1989] RE-UP Download via Hotfile Rapidshare Fileserve Megaupload & FileSonic, The Police - Synchronicity (1983) [MFSL Gold CD - January 1989] RE-UP free torrent downloads included crack, serial, keygen.


Attention!Information

Members of Guest cannot leave comments.