Larry Young - Of Love And Peace (1966) {2014 Japan SHM-CD Blue Note 24-192 Remaster}

Download Now


Larry Young - Of Love And Peace (1966) {2014 Japan SHM-CD Blue Note 24-192 Remaster}
Larry Young - Of Love And Peace (1966) {2014 Japan SHM-CD Blue Note 24-192 Remaster}
EAC rip (secure mode) | FLAC (tracks)+CUE+LOG -> 287 Mb | MP3 @320 -> 98 Mb
Full Artwork @ 600 dpi (png) -> 253 Mb | 5% repair rar | 24-bit 192 kHz remaster
© 2014 Universal Japan / Blue Note | BN 75th The Masterworks | TYCJ-81054
Jazz / Post Bop / Soul Jazz / Avant-Garde Jazz / Organ

"Reissue. Features the high-fidelity SHM-CD format (compatible with standard CD player) and the latest 24bit 192kHz remastering. The most free-thinking Larry Young album of the 60s - and that's saying a lot, considering the rest of his work! The session's quite an unusual one - with two drummers in the group, grounding a sextet that features Larry on organ, James Spaulding on alto and flute, Herbert Morgan on tenor sax, and the great Eddie Gale on trumpet! The tracks are all quite long, open, and flowing - richly organic, and kind of an extension of the groove first laid down by Young on Unity - pushed into more spiritual, late-Coltrane territory. The sound is amazing - incredibly majestic, and on a par with the most far-reaching jazz on Impulse Records of the late 60s - a real standout for Blue Note, and for Young, who wouldn't record this way again until the 70s! Titles include "Falaq", "Seven Steps To Heaven", "Of Love & Peace", and "Pavanne"."

Larry Young - Of Love And Peace (1966) {2014 Japan SHM-CD Blue Note 24-192 Remaster}


Personnel:
Larry Young: organ
Eddie Gale: trumpet
James Spaulding: alto saxophone, flute
Herbert Morgan: tenor saxophone
Wilson Moorman III: drums
Jerry Thomas: drums

Larry Young - Of Love And Peace (1966) {2014 Japan SHM-CD Blue Note 24-192 Remaster}


tracklist:
01 - Pavanne
02 - Of Love And Peace
03 - Seven Steps To Heaven
04 - Falaq

Exact Audio Copy V1.0 beta 4 from 7. December 2014

EAC extraction logfile from 17. June 2015, 21:40

Larry Young / Of Love And Peace

Used drive : ATAPI iHAS124 B Adapter: 1 ID: 0

Read mode : Secure
Utilize accurate stream : Yes
Defeat audio cache : Yes
Make use of C2 pointers : No

Read offset correction

: 6
Overread into Lead-In and Lead-Out : No
Fill up missing offset samples with silence : Yes
Delete leading and trailing silent blocks : No
Null samples used in CRC calculations : Yes
Used interface
: Native Win32 interface for Win NT & 2000
Gap handling
: Appended to previous track

Used output format : User Defined Encoder
Selected bitrate : 1024 kBit/s
Quality : High
Add ID3 tag : No
Command line compressor : C:\Program Files (x86)\FLAC Frontend\tools\flac.exe
Additional command line options : -8 -V -T "ARTIST=%artist%" -T "TITLE=%title%" -T "ALBUM=%albumtitle%" -T "DATE=%year%" -T "TRACKNUMBER=%tracknr%" -T "TOTALTRACKS=%numtracks%" -T "GENRE=%genre%" -T "ALBUMARTIST=%albumartist%" -T "ALBUM ARTIST=%albumartist%" -T "COMMENT=EAC Secure Mode, Test & Copy, AccurateRip, FLAC -8" %source%

TOC of the extracted CD Track | Start | Length | Start sector | End sector
1 | 0:00.00 | 14:12.01 | 0 | 63900 2 | 14:12.01 | 6:33.65 | 63901 | 93440 3 | 20:45.66 | 10:16.59 | 93441 | 139699 4 | 31:02.50 | 10:08.33 | 139700 | 185332

Track 1 Filename D:\_EAC\Larry Young - Of Love And Peace (1966) [FLAC] {2014 Japan SHM-CD Blue Note 24-192 Remaster}\01 - Pavanne.wav Pre-gap length 0:00:02.00 Peak level 99.8 %
Extraction speed 4.2 X
Track quality 100.0 %
Test CRC 3369775A
Copy CRC 3369775A
Accurately ripped (confidence 1) [E96744B0] (AR v2)
Copy OK

Track 2 Filename D:\_EAC\Larry Young - Of Love And Peace (1966) [FLAC] {2014 Japan SHM-CD Blue Note 24-192 Remaster}\02 - Of Love And Peace.wav Pre-gap length 0:00:02.23 Peak level 97.4 %
Extraction speed 5.0 X
Track quality 100.0 %
Test CRC 174AF70F
Copy CRC 174AF70F
Accurately ripped (confidence 1) [CFC754F2] (AR v2)
Copy OK

Track 3 Filename D:\_EAC\Larry Young - Of Love And Peace (1966) [FLAC] {2014 Japan SHM-CD Blue Note 24-192 Remaster}\03 - Seven Steps To Heaven.wav Pre-gap length 0:00:02.23 Peak level 97.9 %
Extraction speed 5.8 X
Track quality 100.0 %
Test CRC FE0F5932
Copy CRC FE0F5932
Accurately ripped (confidence 1) [A73295C0] (AR v2)
Copy OK

Track 4 Filename D:\_EAC\Larry Young - Of Love And Peace (1966) [FLAC] {2014 Japan SHM-CD Blue Note 24-192 Remaster}\04 - Falaq.wav Pre-gap length 0:00:02.23 Peak level 97.5 %
Extraction speed 6.4 X
Track quality 100.0 %
Test CRC D9EDF49D
Copy CRC D9EDF49D
Accurately ripped (confidence 1) [8F7CE0D2] (AR v2)
Copy OK

All tracks accurately ripped

No errors occurred

End of status report

==== Log checksum 451DDF848F377FE965EA361F82D1CD81C68CCA2A4636B948CEE42F1E7DE3D075 ====

Larry Young - Of Love And Peace (1966) {2014 Japan SHM-CD Blue Note 24-192 Remaster}

Larry Young - Of Love And Peace (1966) {2014 Japan SHM-CD Blue Note 24-192 Remaster}

Download:
Buy Premium To Support Me & Get Resumable Support & Max Speed


Links are Interchangeable - No Password

Direct Download

Tags: Remaster

Larry Young - Of Love And Peace (1966) {2014 Japan SHM-CD Blue Note 24-192 Remaster} Download via Hotfile Rapidshare Fileserve Megaupload & FileSonic, Larry Young - Of Love And Peace (1966) {2014 Japan SHM-CD Blue Note 24-192 Remaster} free torrent downloads included crack, serial, keygen.


Attention!Information

Members of Guest cannot leave comments.