Heath Brothers - Endurance (2009)

Download Now

Heath Brothers - Endurance (2009)

Heath Brothers - Endurance (2009)
EAC | FLAC | Image (Cue&Log) ~ 366 Mb (incl 5%) | Mp3 (CBR320) ~ 148 Mb (incl 5%) | Scans included
Genre: Straight-Ahead Jazz, Mainstream Jazz | Label: Jazz Legacy Productions | # 0901004 | Time: 00:53:02

"Brothers Jimmy Heath and Albert "Tootie" Heath carry on together in the tradition of the Heath Brothers band, minus their deceased brother, bassist Percy Heath. David Wong ably fills the bass chair, while pianist Jeb Patton has been working with the Philadelphia-based siblings for going on his dozenth year. There's a certain ease and calm present in Jimmy Heath's tenor sax playing that reflects the wisdom of his seasoned years, an assured stance that is never rushed or over-pronounced. This tone sets up the type of uncomplicated mainstream modern jazz based in bop that most fans can embrace and enjoy. It is refreshing that Jimmy Heath can still crank out new compositions that retain both traditional values and a universal appeal. And -- if it actually needs to be said -- Albert Heath is one of the greatest jazz drummers of all time, and continues on his tasteful, skillful, perfectly balanced path, a common example for students and fellow pros to follow. A perfect example of their combined expertise kicks off the set with "Changes," an effortless, light, breezy, and melodic a type of straight-ahead jazz as you will ever find."



Tracklist:

01. Changes (07:41)
02. Wall to Wall (05:11)
03. You or Me (04:38)
04. Ballad from Leadership Suite (06:09)
05. Dusk in the City (06:16)
06. Two Tees (04:23)
07. Autumn In New York (07:44)
08. From a Lonely Bass (03:24)
09. The Rio Dawn (07:31)


Exact Audio Copy V1.0 beta 3 from 29. August 2011

EAC extraction logfile from 12. July 2014, 18:37

Heath Brothers / Endurance

Used drive : TSSTcorpCDDVDW TS-L633C Adapter: 0 ID: 1

Read mode : Secure
Utilize accurate stream : Yes
Defeat audio cache : Yes
Make use of C2 pointers : No

Read offset correction

: 6
Overread into Lead-In and Lead-Out : No
Fill up missing offset samples with silence : Yes
Delete leading and trailing silent blocks : No
Null samples used in CRC calculations : Yes
Used interface
: Native Win32 interface for Win NT & 2000

Used output format : User Defined Encoder
Selected bitrate : 192 kBit/s
Quality : High
Add ID3 tag : No
Command line compressor : C:\Program Files\FLAC\FLAC frontend.exe
Additional command line options : - 8 "Artist=%artist%" -w "Title=%title%" -w "Album=%albumtitle%" -w Year=%year%" -w "Track=%tracknr%" -w "Genre=%genre%" -h %source% %dest%

TOC of the extracted CD Track | Start | Length | Start sector | End sector
1 | 0:00.00 | 7:41.41 | 0 | 34615 2 | 7:41.41 | 5:11.73 | 34616 | 58013 3 | 12:53.39 | 4:38.65 | 58014 | 78928 4 | 17:32.29 | 6:09.23 | 78929 | 106626 5 | 23:41.52 | 6:16.54 | 106627 | 134880 6 | 29:58.31 | 4:23.31 | 134881 | 154636 7 | 34:21.62 | 7:44.60 | 154637 | 189496 8 | 42:06.47 | 3:24.29 | 189497 | 204825 9 | 45:31.01 | 7:31.23 | 204826 | 238673

Range status and errors

Selected range Filename C:\Users\Андрей\Desktop\Heath Brothers\Heath Brothers - Endurance.wav Peak level 97.7 %
Extraction speed 2.9 X
Range quality 100.0 %
Test CRC 0249DB75
Copy CRC 0249DB75
Copy OK

No errors occurred


AccurateRip summary

Track 1 not present in database
Track 2 not present in database
Track 3 not present in database
Track 4 not present in database
Track 5 not present in database
Track 6 not present in database
Track 7 not present in database
Track 8 not present in database
Track 9 not present in database

None of the tracks are present in the AccurateRip database

End of status report

foobar2000 1.2 / Dynamic Range Meter 1.1.1
log date: 2015-06-18 14:37:06

------
Analyzed: Heath Brothers / Endurance
------

DR Peak RMS Duration Track
------
DR12 -0.46 dB -13.61 dB 7:42 01-Changes
DR11 -0.20 dB -12.30 dB 5:12 02-Wall to Wall
DR11 -0.20 dB -13.67 dB 4:39 03-You or Me
DR12 -0.47 dB -13.77 dB 6:09 04-Ballad from Leadership Suite
DR10 -0.20 dB -11.48 dB 6:17 05-Dusk in the City
DR11 -0.32 dB -12.44 dB 4:23 06-Two Tees
DR10 -0.20 dB -12.03 dB 7:45 07-Autumn In New York
DR11 -0.49 dB -13.82 dB 3:24 08-From a Lonely Bass
DR10 -0.20 dB -11.77 dB 7:31 09-The Rio Dawn
------

Number of tracks: 9
Official DR value: DR11

Samplerate: 44100 Hz
Channels: 2
Bits per sample: 16
Bitrate: 868 kbps
Codec: FLAC

Heath Brothers - Endurance (2009)

Heath Brothers - Endurance (2009)



DOWNLOAD LINKS:
Buy Premium To Support Me & Get Resumable Support & Max Speed


Links are Interchangeable - No Password - Single Extraction

Direct Download

Tags: Brothers, Endurance

Heath Brothers - Endurance (2009) Download via Hotfile Rapidshare Fileserve Megaupload & FileSonic, Heath Brothers - Endurance (2009) free torrent downloads included crack, serial, keygen.


Attention!Information

Members of Guest cannot leave comments.