David Bowie - Scary Monsters (1980)

Download Now

David Bowie - Scary Monsters (1980)

David Bowie - Scary Monsters (1980)
EAC | Flac(Image) + Cue + Log & MP3 CBR 320Kbps
1999 | ArsNova, AN99-0358 | Russia | ~ 426 or 163 Mb | Scans Included
Classic Rock / Pop Rock / Glam

"David Bowie returned to relatively conventional rock & roll with Scary Monsters, an album that effectively acts as an encapsulation of all his '70s experiments. Reworking glam rock themes with avant-garde synth flourishes, and reversing the process as well, Bowie creates dense but accessible music throughout Scary Monsters..."


Tracklist:

01. David Bowie - It's No Game (Part 1) [4:17]
02. David Bowie - Up the Hill Backwards [3:15]
03. David Bowie - Scary Monsters (and Super Creeps) [5:14]
04. David Bowie - Ashes to Ashes [4:28]
05. David Bowie - Fashion [4:51]
06. David Bowie - Teenage Wildlife [6:56]
07. David Bowie - Scream Like a Baby [3:35]
08. David Bowie - Kingdom Come [3:46]
09. David Bowie - Because You're Young [4:54]
10. David Bowie - It's No Game (Part 2) [4:28]
11. David Bowie - Space Oddity (Bonus Track) [5:00]
12. David Bowie - Panic in Detroit (Bonus Track) [3:03]
13. David Bowie - Crystal Japan (Bonus Track) [3:11]
14. David Bowie - Alabama Song (Bonus Track) [3:51]

Exact Audio Copy V1.0 beta 3 from 29. August 2011

EAC extraction logfile from 30. April 2014, 17:54

David Bowie / Scary Monsters (and Super Creeps)

Used drive : Optiarc DVD RW AD-7710H Adapter: 0 ID: 1

Read mode : Secure
Utilize accurate stream : Yes
Defeat audio cache : Yes
Make use of C2 pointers : No

Read offset correction

: 48
Overread into Lead-In and Lead-Out : No
Fill up missing offset samples with silence : Yes
Delete leading and trailing silent blocks : No
Null samples used in CRC calculations : Yes
Used interface
: Installed external ASPI interface

Used output format : Internal WAV Routines
Sample format : 44.100 Hz; 16 Bit; Stereo

TOC of the extracted CD Track | Start | Length | Start sector | End sector
1 | 0:00.32 | 4:16.38 | 32 | 19269 2 | 4:16.70 | 3:15.00 | 19270 | 33894 3 | 7:31.70 | 5:14.37 | 33895 | 57481 4 | 12:46.32 | 4:27.38 | 57482 | 77544 5 | 17:13.70 | 4:51.37 | 77545 | 99406 6 | 22:05.32 | 6:56.00 | 99407 | 130606 7 | 29:01.32 | 3:35.25 | 130607 | 146756 8 | 32:36.57 | 3:45.50 | 146757 | 163681 9 | 36:22.32 | 4:54.00 | 163682 | 185731
10 | 41:16.32 | 4:28.00 | 185732 | 205831
11 | 45:44.32 | 5:00.00 | 205832 | 228331
12 | 50:44.32 | 3:02.38 | 228332 | 242019
13 | 53:46.70 | 3:11.00 | 242020 | 256344
14 | 56:57.70 | 3:51.12 | 256345 | 273681

Range status and errors

Selected range Filename C:\David Bowie - Scary Monsters (and Super Creeps).wav Peak level 100.0 %
Extraction speed 5.0 X
Range quality 100.0 %
Test CRC D669B135
Copy CRC D669B135
Copy OK

No errors occurred


AccurateRip summary

Track 1 cannot be verified as accurate (confidence 25) 91B5FC7, AccurateRip returned [3B59D83D] (AR v2)
Track 2 cannot be verified as accurate (confidence 27) C77796B, AccurateRip returned [6BA6E4DF] (AR v2)
Track 3 cannot be verified as accurate (confidence 27) [4C3C2E4F], AccurateRip returned [2437611F] (AR v2)
Track 4 cannot be verified as accurate (confidence 27) [EC39A927], AccurateRip returned [67EC551C] (AR v2)
Track 5 cannot be verified as accurate (confidence 27) [5AACE2CA], AccurateRip returned [88887CD6] (AR v2)
Track 6 cannot be verified as accurate (confidence 27) [5EE1450A], AccurateRip returned [D8FF4983] (AR v2)
Track 7 cannot be verified as accurate (confidence 26) [59F65A1B], AccurateRip returned [3F4F37FA] (AR v2)
Track 8 cannot be verified as accurate (confidence 26) [207AED4C], AccurateRip returned [3AA26CA9] (AR v2)
Track 9 cannot be verified as accurate (confidence 25) [728A5814], AccurateRip returned [8705CCF8] (AR v2)
Track 10 cannot be verified as accurate (confidence 27) [2F6E5A63], AccurateRip returned [CE336D81] (AR v2)
Track 11 cannot be verified as accurate (confidence 27) [9C66621B], AccurateRip returned [56AECBE0] (AR v2)
Track 12 cannot be verified as accurate (confidence 26) [0F6D5F04], AccurateRip returned [5912FBE3] (AR v2)
Track 13 cannot be verified as accurate (confidence 26) [685B7A0E], AccurateRip returned [DF7E3CF5] (AR v2)
Track 14 cannot be verified as accurate (confidence 25) [A0257C1D], AccurateRip returned 6937612 (AR v2)

No tracks could be verified as accurate
You may have a different pressing from the one(s) in the database

End of status report

==== Log checksum 3A69B16F6FAE59073E5595563F4A9B00E7F3973208BB898111F4C70D59E1613B ====

foobar2000 1.2.9 / Dynamic Range Meter 1.1.1
log date: 2015-06-18 13:49:45

------
Analyzed: David Bowie / Scary Monsters (and Super Creeps)
------

DR Peak RMS Duration Track
------
DR11 0.00 dB -12.82 dB 4:17 01-It's No Game (Part 1)
DR13 0.00 dB -15.31 dB 3:15 02-Up the Hill Backwards
DR12 0.00 dB -13.32 dB 5:14 03-Scary Monsters (and Super Creeps)
DR12 0.00 dB -14.49 dB 4:28 04-Ashes to Ashes
DR13 0.00 dB -14.90 dB 4:51 05-Fashion
DR12 0.00 dB -13.27 dB 6:56 06-Teenage Wildlife
DR12 -1.00 dB -14.64 dB 3:35 07-Scream Like a Baby
DR12 0.00 dB -13.31 dB 3:46 08-Kingdom Come
DR11 0.00 dB -13.57 dB 4:54 09-Because You’re Young
DR12 0.00 dB -15.55 dB 4:28 10-It's No Game (Part 2)
DR15 -0.02 dB -17.48 dB 5:00 11-Space Oddity (Bonus Track)
DR11 0.00 dB -12.69 dB 3:03 12-Panic in Detroit (Bonus Track)
DR10 -1.74 dB -14.52 dB 3:11 13-Crystal Japan (Bonus Track)
DR12 0.00 dB -13.33 dB 3:51 14-Alabama Song (Bonus Track)
------

Number of tracks: 14
Official DR value: DR12

Samplerate: 44100 Hz
Channels: 2
Bits per sample: 16
Bitrate: 907 kbps
Codec: FLAC

[CUETools log; Date: 18.06.2015 13:38:20; Version: 2.1.4]
Pregap length 00:00:32.
[CTDB TOCID: st_mbmxatog5wvOWyDRaszQPaBM-] found.
Track | CTDB Status
1 | (14/14) Accurately ripped
2 | (14/14) Accurately ripped
3 | (14/14) Accurately ripped
4 | (14/14) Accurately ripped
5 | (14/14) Accurately ripped
6 | (14/14) Accurately ripped
7 | (14/14) Accurately ripped
8 | (14/14) Accurately ripped
9 | (14/14) Accurately ripped
10 | (14/14) Accurately ripped
11 | (14/14) Accurately ripped
12 | (14/14) Accurately ripped
13 | (14/14) Accurately ripped
14 | (14/14) Accurately ripped
[AccurateRip ID: 00205bac-01591de3-d20e410e] found.
Track [ CRC | V2 ] Status
01 [df85edc0|b91b5fc7] (000+002/129) Accurately ripped
02 562f3be|bc77796b (000+002/128) Accurately ripped
03 [85060602|4c3c2e4f] (000+002/128) Accurately ripped
04 [d46b8468|ec39a927] (000+002/129) Accurately ripped
05 [9b1e41b1|5aace2ca] (000+002/129) Accurately ripped
06 [4be1e3a5|5ee1450a] (000+002/127) Accurately ripped
07 [9142ac26|59f65a1b] (000+002/128) Accurately ripped
08 [6ef368e1|207aed4c] (000+002/128) Accurately ripped
09 [16ed6b90|728a5814] (000+002/125) Accurately ripped
10 [6604fe10|2f6e5a63] (000+002/126) Accurately ripped
11 [582bc16d|9c66621b] (000+002/129) Accurately ripped
12 [314a6e81|0f6d5f04] (000+002/129) Accurately ripped
13 [c1fbcf58|685b7a0e] (000+002/128) Accurately ripped
14 [627ba302|a0257c1d] (000+002/126) Accurately ripped
Offsetted by 659:
01 [5cb98c6d] (019/129) Accurately ripped
02 [7bc4cd63] (019/128) Accurately ripped
03 [4084cd07] (018/128) Accurately ripped
04 [4aa27c1c] (018/129) Accurately ripped
05 [df9e763e] (018/129) Accurately ripped
06 [627c7da3] (017/127) Accurately ripped
07 0ff680a (018/128) Accurately ripped
08 [9903b630] (019/128) Accurately ripped
09 [e1cde0ec] (018/125) Accurately ripped
10 [fcaf0fc1] (017/126) Accurately ripped
11 [cac33853] (017/129) Accurately ripped
12 [c7dd8077] (017/129) Accurately ripped
13 [03b7723e] (016/128) Accurately ripped
14 [33230512] (015/126) Accurately ripped
Offsetted by 2691:
01 [c141687d] (008/129) Accurately ripped
02 [157826f3] (008/128) Accurately ripped
03 [af539497] (008/128) Accurately ripped
04 [3a0efc5c] (008/129) Accurately ripped
05 0e5684e (008/129) Accurately ripped
06 [3f4c6103] (008/127) Accurately ripped
07 [8dabada1] (008/128) Accurately ripped
08 [3f356d41] (008/128) Accurately ripped
09 [c2db55ac] (008/125) Accurately ripped
10 [04cd5511] (008/126) Accurately ripped
11 [d3eb5433] (008/129) Accurately ripped
12 [da31f157] (008/129) Accurately ripped
13 [0d554e1e] (008/128) Accurately ripped
14 [3d4f8a12] (008/126) Accurately ripped
Offsetted by 2755:
01 [3b59d83d] (025/129) Accurately ripped
02 [2667a0b3] (023/128) Accurately ripped
03 [c6f95657] (024/128) Accurately ripped
04 [031c7b5c] (024/129) Accurately ripped
05 [e3d5800e] (024/129) Accurately ripped
06 [98e61383] (024/127) Accurately ripped
07 [03574dc2] (025/128) Accurately ripped
08 [c04be2d8] (024/128) Accurately ripped
09 [4efc02ac] (022/125) Accurately ripped
10 a799fd1 (022/126) Accurately ripped
11 [533324b3] (023/129) Accurately ripped
12 [071e6dd7] (024/129) Accurately ripped
13 [df461e9e] (024/128) Accurately ripped
14 6937612 (025/126) Accurately ripped
Offsetted by 603:
01 [d1e42aa5] (000/129) No match
02 [acf342db] (000/128) No match
03 [ebd3c37f] (000/128) No match
04 [9ab6acfc] (000/129) No match
05 [f30c6176] (000/129) No match
06 4160173 (000/127) No match
07 [cdc78642] (000/128) No match
08 [04e04ce8] (000/128) No match
09 [2731498c] (000/125) No match
10 [1db84e59] (017/126) Accurately ripped
11 [3b6461e3] (017/129) Accurately ripped
12 [608e9387] (017/129) Accurately ripped
13 [cc04bbce] (017/128) Accurately ripped
14 [49079692] (017/126) Accurately ripped
Offsetted by 610:
01 [233ed6de] (017/129) Accurately ripped
02 [66cd742c] (017/128) Accurately ripped
03 [9669e4b0] (017/128) Accurately ripped
04 [90b426e0] (017/129) Accurately ripped
05 [509ea40f] (017/129) Accurately ripped
06 [49e2d0f9] (016/127) Accurately ripped
07 ad01807 (016/128) Accurately ripped
08 [57ed9b22] (016/128) Accurately ripped
09 e84dc78 (017/125) Accurately ripped
10 [59972686] (000/126) No match
11 [4d503cb1] (000/129) No match
12 [0d787125] (000/129) No match
13 [72fb129c] (000/128) No match
14 [864b0462] (000/126) No match

Track Peak [ CRC32 ] [W/O NULL] [ LOG ]
-- 100,0 [D669B135] [4A8498E8] CRC32
01 100,0 [94EE6B7A] [9E07FD4E]
02 100,0 [C016A44F] [005BED01]
03 100,0 [AAA545B1] [82F49FA5]
04 99,9 [1E797BD7] [53888215]
05 100,0 [CBEBEB70] [A54167DB]
06 100,0 [71B8472F] [44C950F1]
07 89,1 [3DFB56C3] [2AF20F84]
08 100,0 [49189B69] [58F8E562]
09 100,0 [AB3E9F8C] [C7FCFC46]
10 100,0 [85FABD98] [43E0444E]
11 99,8 [289D5304] [5AF44E18]
12 100,0 [0B167D31] [1B4E2B16]
13 81,8 [A0AC65B8] [A2BC9B8F]
14 100,0 [EEAA707B] [C89D2EB5]

David Bowie - Scary Monsters (1980)

DOWNLOAD LINKS:
(Premium Recommended)


All above links are interchangable. No password

Direct Download

Tags: Monsters

David Bowie - Scary Monsters (1980) Download via Hotfile Rapidshare Fileserve Megaupload & FileSonic, David Bowie - Scary Monsters (1980) free torrent downloads included crack, serial, keygen.


Attention!Information

Members of Guest cannot leave comments.