Leonard Bernstein · The Early Years Vol.IV · Stravinsky · Milhaud · Bernstein

Download Now

Leonard Bernstein · The Early Years Vol.IV · Stravinsky · Milhaud · Bernstein

Leonard Bernstein · The Early Years Vol.IV · Stravinsky · Milhaud · Bernstein
EAC Rip | Flac, IMG+Cue, Log | 1 CD | 479 MB | Full Scans | WinRar [rec. rec 5%]
Label: BMG-RCA | Cat. No. 09026-68101-2 | Released 1997

""By the end of 1949, when the recordings issued here were made, Leonard Bernstein was beyond the point where he could be regarded a "new" figure on the American musical scene. In six short years - from the dramatic moment of his debut with the New York Philharmonic on nationwide radio, filling in at the last moment for an ailing Bruno Walter - he had shown remarkable gifts first as a conductor, then as a composer in the symphonic world and ballet and then on Broadway . All that in the 13 months between November 14, 1943, and the end of 1944! When World War II ended, Bernstein was able to take up his role as the assistant to Serge Koussevitzky at Tanglewood. He had promoted the music of his fellow Americans in live performances.... had produced significant recordings of works by two of them. He had appeared as conductor and soloist in a recording of Ravel's Concerto in G. And, naturally, he had recorded a number of his own works."
Steven Ledbetter
"

Leonard Bernstein · The Early Years Vol.IV · Stravinsky · Milhaud · Bernstein

Leonard Bernstein
The Early Years Vol. III

IGOR STRAVINSKY
01-12. L'Histoire du soldat
Members of the Boston Symphony
Rec. 11 August 1947, at Tanglewood, Lennox, Massachusetts

13-15. Octet for Wind Instruments
Members of the Boston Symphony
Rec. 11 August 1947, at Tanglewood, Lennox, Massachusetts

DARIUS MILHAUD
16. La Création du monde
Victor Chamber Orchestra
Rec. 21 November 1945, at the Lotos Club, New York City

LEONARD BERNSTEIN
17. Afterthought - Study for the Ballet "Facsimile"
Blanche Thebom, mezzo-soprano
Rec. 24 December 1947, in RCA Studios 2 & 6, New York City

18. I Hate Music
Blanche Thebom, mezzo soprano
Rec. 15 June 1949, in RCA Studios 2 & 6, New York City

Leonard Bernstein, conductor, pianist



Exact Audio Copy V1.0 beta 3 from 29. August 2011

EAC extraction logfile from 21. June 2015, 17:11

Leonard Bernstein / The Early Years 4

Used drive : HL-DT-STDVDRAM GH24NSB0 Adapter: 3 ID: 0

Read mode : Secure
Utilize accurate stream : Yes
Defeat audio cache : Yes
Make use of C2 pointers : No

Read offset correction

: 6
Overread into Lead-In and Lead-Out : No
Fill up missing offset samples with silence : Yes
Delete leading and trailing silent blocks : No
Null samples used in CRC calculations : Yes
Used interface
: Native Win32 interface for Win NT & 2000

Used output format : Internal WAV Routines
Sample format : 44.100 Hz; 16 Bit; Stereo

TOC of the extracted CD Track | Start | Length | Start sector | End sector
1 | 0:00.00 | 1:42.63 | 0 | 7712 2 | 1:42.63 | 2:52.42 | 7713 | 20654 3 | 4:35.30 | 2:47.65 | 20655 | 33244 4 | 7:23.20 | 2:38.60 | 33245 | 45154 5 | 10:02.05 | 3:19.35 | 45155 | 60114 6 | 13:21.40 | 2:11.70 | 60115 | 70009 7 | 15:33.35 | 1:57.20 | 70010 | 78804 8 | 17:30.55 | 2:14.48 | 78805 | 88902 9 | 19:45.28 | 0:40.20 | 88903 | 91922
10 | 20:25.48 | 1:28.50 | 91923 | 98572
11 | 21:54.23 | 2:55.27 | 98573 | 111724
12 | 24:49.50 | 2:20.13 | 111725 | 122237
13 | 27:09.63 | 4:01.32 | 122238 | 140344
14 | 31:11.20 | 7:46.33 | 140345 | 175327
15 | 38:57.53 | 3:39.00 | 175328 | 191752
16 | 42:36.53 | 15:55.12 | 191753 | 263389
17 | 58:31.65 | 3:25.00 | 263390 | 278764
18 | 61:56.65 | 0:50.48 | 278765 | 282562
19 | 62:47.38 | 1:11.47 | 282563 | 287934
20 | 63:59.10 | 1:26.73 | 287935 | 294457
21 | 65:26.08 | 0:43.70 | 294458 | 297752
22 | 66:10.03 | 1:57.37 | 297753 | 306564

Range status and errors

Selected range Filename F:\M U S I C as of 01-Nov-2014\BERNSTEIN for AVAX Early Years\04. Safe Mode\LBEARLY04RCA_SM\Leonard Bernstein - The Early Years 4.wav Peak level 99.9 %
Extraction speed 2.0 X
Range quality 100.0 %
Copy CRC B0A41B40
Copy OK

No errors occurred


AccurateRip summary

Track 1 not present in database
Track 2 not present in database
Track 3 not present in database
Track 4 not present in database
Track 5 not present in database
Track 6 not present in database
Track 7 not present in database
Track 8 not present in database
Track 9 not present in database
Track 10 not present in database
Track 11 not present in database
Track 12 not present in database
Track 13 not present in database
Track 14 not present in database
Track 15 not present in database
Track 16 not present in database
Track 17 not present in database
Track 18 not present in database
Track 19 not present in database
Track 20 not present in database
Track 21 not present in database
Track 22 not present in database

None of the tracks are present in the AccurateRip database

End of status report

---- CUETools DB Plugin V2.1.6

[CTDB TOCID: LmLf81YsFDrnJzBsQZPXLYKcp7U-] found
Submit result: Anulada la solicitud: La solicitud fue cancelada.
Track | CTDB Status
1 | (2/2) Accurately ripped
2 | (2/2) Accurately ripped
3 | (2/2) Accurately ripped
4 | (2/2) Accurately ripped
5 | (2/2) Accurately ripped
6 | (2/2) Accurately ripped
7 | (2/2) Accurately ripped
8 | (2/2) Accurately ripped
9 | (2/2) Accurately ripped
10 | (2/2) Accurately ripped
11 | (2/2) Accurately ripped
12 | (2/2) Accurately ripped
13 | (1/2) Accurately ripped
14 | (2/2) Accurately ripped
15 | (2/2) Accurately ripped
16 | (2/2) Accurately ripped
17 | (2/2) Accurately ripped
18 | (1/2) Accurately ripped
19 | (2/2) Accurately ripped
20 | (2/2) Accurately ripped
21 | (2/2) Accurately ripped
22 | (1/2) Accurately ripped

==== Log checksum D5AF929A6C68CF7664779B66444294059BBEB9A9D7E5E27F3127CBEC969F4A84 ====
DOWNLOAD LINKS:
(Premium Recommended)


All above links are interchangable. No password

Direct Download

Tags: Leonard, Bernstein, Stravinsky, Milhaud, Bernstein

Leonard Bernstein · The Early Years Vol.IV · Stravinsky · Milhaud · Bernstein Download via Hotfile Rapidshare Fileserve Megaupload & FileSonic, Leonard Bernstein · The Early Years Vol.IV · Stravinsky · Milhaud · Bernstein free torrent downloads included crack, serial, keygen.


Attention!Information

Members of Guest cannot leave comments.