Tinsley Ellis - Fire It Up (1997)

Download Now

Tinsley Ellis - Fire It Up (1997)

Tinsley Ellis - Fire It Up (1997)
EAC Rip | FLAC: Image+Cue+Log | 365 Mb | MP3 CBR 320 kbps | 131 Mb | Scans | Time: 55:06
Genre: Blues Rock, Modern Electric Blues | Label: Alligator Records | Cat.в„–: ALCD 4852

"Fire It Up is a 1997 Blues album by Tinsley Ellis. It was recorded and mixed at Southern Tracks Atlanta, Georgia by Caram Costanzo with Ryan Williams as assistant engineer, mastered by Jason Rau and produced by Tom Dowd (Allman Brothers, Eric Clapton). "Red hot blues rock. Feral blues guitar...his elegance dazzles...pyroctechnics that rival Clapton and Beck"."



Track Listing

01. Diggin' My Own Grave (04:14)
02. Just Dropped In (04:00)
03. Standing On The Edge Of Love (04:17)
04. Soulful (03:25)
05. Are You Sorry? (07:43)
06. I Walk Alone (03:32)
07. Change Your Mind (04:58)
08. Break My Rule (03:04)
09. One Sunny Day (03:57)
10. If That's How He Loves You (04:39)
11. Look What You Done (04:59)
12. Everyday (06:13)

Produced by Tom Dowd

Personnel

* Tinsley Ellis: guitar, vocals
* Donald "Duck" Dunn, Scott Koziol: bass
* Rob McNeely: rhythm guitar, slide guitar
* Tad Parker, Scott Meeder, Kennard Johnson: drums
* Kevin McKendree: keyboards

Exact Audio Copy V1.0 beta 3 from 29. August 2011

EAC extraction logfile from 3. April 2015, 19:54

Tinsley Ellis / Fire It Up

Used drive : PIONEER BD-RW BDR-207M Adapter: 0 ID: 2

Read mode : Secure
Utilize accurate stream : Yes
Defeat audio cache : Yes
Make use of C2 pointers : No

Read offset correction

: 667
Overread into Lead-In and Lead-Out : No
Fill up missing offset samples with silence : Yes
Delete leading and trailing silent blocks : No
Null samples used in CRC calculations : Yes
Used interface
: Native Win32 interface for Win NT & 2000

Used output format : User Defined Encoder
Selected bitrate : 1024 kBit/s
Quality : High
Add ID3 tag : No
Command line compressor : C:\Program Files (x86)\Exact Audio Copy\Flac\flac.exe
Additional command line options : -V -8 -T "Date=%year%" -T "Genre=%genre%" %source%

TOC of the extracted CD Track | Start | Length | Start sector | End sector
1 | 0:00.00 | 4:14.12 | 0 | 19061 2 | 4:14.12 | 4:00.23 | 19062 | 37084 3 | 8:14.35 | 4:17.02 | 37085 | 56361 4 | 12:31.37 | 3:25.33 | 56362 | 71769 5 | 15:56.70 | 7:43.47 | 71770 | 106541 6 | 23:40.42 | 3:32.50 | 106542 | 122491 7 | 27:13.17 | 4:58.45 | 122492 | 144886 8 | 32:11.62 | 3:03.73 | 144887 | 158684 9 | 35:15.60 | 3:57.67 | 158685 | 176526
10 | 39:13.52 | 4:39.30 | 176527 | 197481
11 | 43:53.07 | 4:59.40 | 197482 | 219946
12 | 48:52.47 | 6:12.73 | 219947 | 247919

Range status and errors

Selected range Filename C:\Users\Jean\Music\Tinsley Ellis - Fire It Up.wav Peak level 100.0 %
Extraction speed 7.0 X
Range quality 100.0 %
Test CRC 0A0B5C59
Copy CRC 0A0B5C59
Copy OK

No errors occurred


AccurateRip summary

Track 1 accurately ripped (confidence 11) [F44D6827] (AR v2)
Track 2 accurately ripped (confidence 11) 9312626 (AR v2)
Track 3 accurately ripped (confidence 11) [0595C4F2] (AR v2)
Track 4 accurately ripped (confidence 11) [987B1FDB] (AR v2)
Track 5 accurately ripped (confidence 10) [C331F1B1] (AR v2)
Track 6 accurately ripped (confidence 11) [9C743DA0] (AR v2)
Track 7 accurately ripped (confidence 11) [829530A2] (AR v2)
Track 8 accurately ripped (confidence 11) [6A050C01] (AR v2)
Track 9 accurately ripped (confidence 11) [68240BF2] (AR v2)
Track 10 accurately ripped (confidence 10) [E7C8646C] (AR v2)
Track 11 accurately ripped (confidence 11) [1A2769F5] (AR v2)
Track 12 accurately ripped (confidence 11) [A7762F15] (AR v2)

All tracks accurately ripped

End of status report

==== Log checksum AD1A6DF43EDD241940E1694EEC91B4639D8D7A2B56FB61C86EDC6D80461D3863 ====

Many thanks to the original uploader: Jeanlab
DOWNLOAD LINKS:


No Password

Direct Download

Tags: Tinsley

Tinsley Ellis - Fire It Up (1997) Download via Hotfile Rapidshare Fileserve Megaupload & FileSonic, Tinsley Ellis - Fire It Up (1997) free torrent downloads included crack, serial, keygen.


Attention!Information

Members of Guest cannot leave comments.