Djabe with Steve Hackett, Gulli Briem and John Nugent - Live In Blue (2015) Blu-ray

Download Now

Djabe with Steve Hackett, Gulli Briem and John Nugent - Live In Blue (2015) Blu-ray

Djabe with Steve Hackett, Gulli Briem and John Nugent - Live In Blue (2015)
Blu-ray | MPEG-4 AVC, 1920x1080i (16:9), 25 fps, ~ 6620 kbps | Audio #1: DTS-HD High-Res Audio 5.1, 96 kHz/24-bit, 4224 kbps
Audio #2: LPCM 2.0, 96 kHz/24-bit, 4608 kbps | ~ 22,2 Gb | RAR 5% Recovery
Jazz, World fusion | 02:00+00:44+00:19+00:07 | GR1993 Records #GR-116-5

"The Blu-Ray disc is presenting you the legendary surround live concert's musical and audiophile experience in it's full glory or more! Szilard Banai, Tamas Barabas, Attila Égerházi, Ferenc, Kovács Zoltán with Gulli Briem and John Nugent. This concert film was recorded in Budapest, at the Pecsa Music Hall. It was one of the live surround shows of the Down And Up album tour. The album and the tour, especially the live 5.1 audio experience meant a milestone in the band's history. At the show even the lights turned blue. This show is a really unbeatable performance in the jazz / world scene. To enjoy the blue show, put your Blu-Ray disc into your player, sit back, relax, and turn the volume up..."

Official Website | Wiki | Discogs
***************


Track List:

Live in Blue - Live at the Pecsa Music Hall - Budapest 2013:

Banai Szilard - drums
Barabas Tamas - bass guitar
Egerhazi Attila - guitar, percussion,
Kovacs Ferenc - trumpet, flugelhorn, violin, vocal
Kovacs Zoltan - keyboards
Gulli Briem - hang drum, percussion, drums
John Nugent - tenor and soprano saxophone

01. Intro
02. Down And Up
03. Take A Deep Breath
04. Awakening City
05. No Chance For Dance
06. Almi & Kitti
07. Backstreet Toys
08. I Remember
09. Dark Soup
10. Five Months Later
11. Hills Of The Valley,
12. Angklung In The Sun
13. Take On
14. Wind And Bell
15. Altitude Synergy
16. Indian Experience
17. End Of A Beautiful Day
18. Hang Drum Song
19. This Is Not America
20. Butterfly
21. House On The Hill,
22. Hortobagy At Winter
23. Clouds Dance
24. First Step
25. Distant Dance

Live at the IBS - Budapest 2012:

Banai Szilard - drums
Barabas Tamas - bass guitar
Egerhazi Attila - guitar, percussion,
Kovacs Ferenc - trumpet, flugelhorn, violin, vocal
Kovacs Zoltan - keyboards
Gulli Briem - percussion, drums
Steve Hackett - guitar, vocal

1. Awakening City
2. I Remember
3. Firth Of Fifth
4. In That Quiet Earth
5. Distant Dance
6. Los Endos
7. Tears For Peace

Live at the Muveszetek Haza - Miskolc 2012:

Banai Szilard - drums
Barabas Tamas - bass guitar
Egerhazi Attila - guitar, percussion,
Kovacs Ferenc - trumpet, flugelhorn, violin, vocal
Kovacs Zoltan - keyboards
Steve Hackett - guitar, vocal
Kovacs Sara - flute
Miskolc Symphony Orchestra

1. Walking Away From Rainbows (acoustic version)
2. Ace Of Wands (acoustic version)
3. Jacuzzi (acoustic version)
4. Overnight Sleeper (acoustic version)
5. Los Sipos

The Official Video Clip:

Banai Szilard - drums
Barabas Tamas - bass guitar
Egerhazi Attila - guitar, percussion,
Kovacs Ferenc - trumpet, flugelhorn, violin, vocal
Kovacs Zoltan - keyboards
Steve Hackett - guitar, vocal

1. Tears For Peace (video clip)

Disc Title: Djabe - Live In Blue (2015) BD
Disc Size: 22781654332 bytes
Protection: AACS
BD-Java: Yes
Extras: 50Hz Content
BDInfo: 0.5.8

Notes:

BDINFO HOME:
Cinema Squid
http://www.cinemasquid.com/blu-ray/tools/bdinfo

INCLUDES FORUMS REPORT FOR:
AVS Forum Blu-ray Audio and Video Specifications Thread
http://www.avsforum.com/avs-vb/showthread.php?t=1155731

********************
PLAYLIST: 00001.MPLS
******************** Total Video
Title Codec Length Movie Size Disc Size Bitrate Bitrate Main Audio Track Secondary Audio Track
----- ------ ------- -- --- ------- ------- -------
00001.MPLSAVC 1:59:12 14783901696 22781654332 16,54 6,62 DTS-HD Hi-Res 5.1 4224Kbps (96kHz/24-bit) LPCM 2.0 4608Kbps (96kHz/24-bit)

DISC INFO:

Disc Title: Djabe - Live In Blue (2015) BD
Disc Size: 22781654332 bytes
Protection: AACS
BD-Java: Yes
Extras: 50Hz Content
BDInfo: 0.5.8

PLAYLIST REPORT:

Name: 00001.MPLS
Length: 1:59:12.560 (h:m:s.ms)
Size: 14783901696 bytes
Total Bitrate: 16,54 Mbps

VIDEO:

Codec Bitrate Description
----- -------
MPEG-4 AVC Video 6620 kbps 1080i / 25 fps / 16:9 / High Profile 4.1

AUDIO:

Codec Language Bitrate Description
----- -------- -------
DTS-HD High-Res Audio Undetermined 4224 kbps 5.1 / 96 kHz / 4224 kbps / 24-bit (DTS Core: 5.1 / 48 kHz / 1509 kbps / 24-bit)
LPCM Audio

Undetermined 4608 kbps 2.0 / 96 kHz / 4608 kbps / 24-bit

SUBTITLES:

Codec Language Bitrate Description
----- -------- -------
Presentation Graphics English 0,597 kbps

FILES:

Name Time In Length Size Total Bitrate
---- ------- ------ ---- -
00001.M2TS 0:00:00.000 1:59:12.560 14783901696 16536

CHAPTERS:

Number Time In Length Avg Video Rate Max 1-Sec Rate Max 1-Sec Time Max 5-Sec Rate Max 5-Sec Time Max 10Sec Rate Max 10Sec Time Avg Frame Size Max Frame Size Max Frame Time
------ ------- ------ -- --- -- --- -- -- -- --- -- ---
1 0:00:00.000 1:59:12.560 6620 kbps 13620 kbps 00:15:53.680 10738 kbps 01:18:32.640 9851 kbps 01:18:31.480 33098 bytes 258618 bytes 00:00:00.360

STREAM DIAGNOSTICS:

File PID Type Codec Language Seconds Bitrate Bytes Packets
---- --- ---- ----- -------- -- -- - -----
00001.M2TS 4113 (0x1011) 0x1B AVC
7152,480 6620 5918343954 32269890
00001.M2TS 4352 (0x1100) 0x85 DTS-HD HR und (Undetermined) 7152,480 4244 3794683904 21560703
00001.M2TS 4353 (0x1101) 0x80 LPCM und (Undetermined) 7152,480 4614 4125596608 22888192
00001.M2TS 4608 (0x1200) 0x90 PGS eng (English) 7152,480 1

533646 3107

QUICK SUMMARY:

Disc Title: Djabe - Live In Blue (2015) BD
Disc Size: 22781654332 bytes
Protection: AACS
BD-Java: Yes
Playlist: 00001.MPLS
Size: 14783901696 bytes
Length: 1:59:12.560
Total Bitrate: 16,54 Mbps
Video: MPEG-4 AVC Video / 6620 kbps / 1080i / 25 fps / 16:9 / High Profile 4.1
Audio: Undetermined / DTS-HD High-Res Audio / 5.1 / 96 kHz / 4224 kbps / 24-bit (DTS Core: 5.1 / 48 kHz / 1509 kbps / 24-bit)
Audio: Undetermined / LPCM Audio / 2.0 / 96 kHz / 4608 kbps / 24-bit
Subtitle: English / 0,597 kbps

********************
PLAYLIST: 01001.MPLS
********************

Total Video
Title Codec Length Movie Size Disc Size Bitrate Bitrate Main Audio Track Secondary Audio Track
----- ------ ------- -- --- ------- ------- -------
01001.MPLSAVC 1:59:12 14783901696 22781654332 16,54 6,62 DTS-HD Hi-Res 5.1 4224Kbps (96kHz/24-bit) LPCM 2.0 4608Kbps (96kHz/24-bit)

DISC INFO:

Disc Title: Djabe - Live In Blue (2015) BD
Disc Size: 22781654332 bytes
Protection: AACS
BD-Java: Yes
Extras: 50Hz Content
BDInfo: 0.5.8

PLAYLIST REPORT:

Name: 01001.MPLS
Length: 1:59:12.560 (h:m:s.ms)
Size: 14783901696 bytes
Total Bitrate: 16,54 Mbps

VIDEO:

Codec Bitrate Description
----- -------
MPEG-4 AVC Video 6620 kbps 1080i / 25 fps / 16:9 / High Profile 4.1

AUDIO:

Codec Language Bitrate Description
----- -------- -------
DTS-HD High-Res Audio Undetermined 4224 kbps 5.1 / 96 kHz / 4224 kbps / 24-bit (DTS Core: 5.1 / 48 kHz / 1509 kbps / 24-bit)
LPCM Audio

Undetermined 4608 kbps 2.0 / 96 kHz / 4608 kbps / 24-bit

SUBTITLES:

Codec Language Bitrate Description
----- -------- -------
Presentation Graphics English 0,597 kbps

FILES:

Name Time In Length Size Total Bitrate
---- ------- ------ ---- -
00001.M2TS 0:00:00.000 1:59:12.560 14783901696 16536

CHAPTERS:

Number Time In Length Avg Video Rate Max 1-Sec Rate Max 1-Sec Time Max 5-Sec Rate Max 5-Sec Time Max 10Sec Rate Max 10Sec Time Avg Frame Size Max Frame Size Max Frame Time
------ ------- ------ -- --- -- --- -- -- -- --- -- ---
1 0:00:00.000 0:01:14.840 6636 kbps 12884 kbps 00:00:00.039 9115 kbps 00:00:35.080 7913 kbps 00:00:35.320 33164 bytes 258618 bytes 00:00:00.360
2 0:01:14.840 0:06:25.640 6626 kbps 10863 kbps 00:03:12.240 9481 kbps 00:05:33.000 8531 kbps 00:05:29.000 33132 bytes 149356 bytes 00:05:29.039
3 0:07:40.480 0:06:32.000 6569 kbps 12240 kbps 00:07:45.960 9792 kbps 00:07:43.839 8688 kbps 00:07:43.840 32845 bytes 154374 bytes 00:13:51.359
4 0:14:12.480 0:07:12.800 6679 kbps 13620 kbps 00:15:53.680 9904 kbps 00:15:57.400 9721 kbps 00:15:52.480 33396 bytes 139619 bytes 00:20:00.280
5 0:21:25.280 0:06:07.200 6704 kbps 10465 kbps 00:23:59.600 9069 kbps 00:21:41.600 8055 kbps 00:25:08.720 33519 bytes 143925 bytes 00:25:27.320
6 0:27:32.480 0:08:12.199 6669 kbps 11822 kbps 00:33:49.200 10362 kbps 00:33:48.280 9064 kbps 00:33:26.440 33346 bytes 170016 bytes 00:31:19.200
7 0:35:44.680 0:05:39.400 6550 kbps 10407 kbps 00:37:12.480 9621 kbps 00:37:09.680 8884 kbps 00:37:57.880 32748 bytes 136336 bytes 00:37:54.200
8 0:41:24.080 0:06:54.720 6645 kbps 11400 kbps 00:45:29.520 9139 kbps 00:45:54.960 8614 kbps 00:45:48.680 33226 bytes 185477 bytes 00:44:13.960
9 0:48:18.800 0:07:51.199 6593 kbps 10906 kbps 00:55:44.680 8806 kbps 00:54:06.640 8441 kbps 00:50:37.280 32963 bytes 157167 bytes 00:55:38.560
10 0:56:10.000 0:06:25.479 6651 kbps 12574 kbps 01:00:50.160 9107 kbps 01:00:40.320 8081 kbps 01:02:06.200 33255 bytes 161831 bytes 01:00:50.200
11 1:02:35.479 0:07:57.520 6602 kbps 11048 kbps 01:04:16.560 9626 kbps 01:09:33.080 8680 kbps 01:09:58.439 33008 bytes 162281 bytes 01:02:47.200
12 1:10:33.000 0:05:51.000 6473 kbps 11632 kbps 01:14:45.880 10003 kbps 01:16:10.640 8610 kbps 01:13:58.720 32365 bytes 133730 bytes 01:13:21.640
13 1:16:24.000 0:04:32.760 7135 kbps 12762 kbps 01:18:34.640 10738 kbps 01:18:32.640 9851 kbps 01:18:31.480 35677 bytes 155667 bytes 01:17:53.479
14 1:20:56.760 0:03:38.479 6122 kbps 9204 kbps 01:22:47.200 8506 kbps 01:23:01.240 8015 kbps 01:22:58.560 30610 bytes 161573 bytes 01:24:16.280
15 1:24:35.240 0:04:14.239 6872 kbps 13243 kbps 01:25:55.560 10486 kbps 01:27:02.960 9269 kbps 01:26:37.840 34358 bytes 204849 bytes 01:25:09.840
16 1:28:49.479 0:03:10.520 6494 kbps 10521 kbps 01:30:59.520 9644 kbps 01:30:32.280 9173 kbps 01:30:32.240 32471 bytes 168503 bytes 01:29:47.080
17 1:32:00.000 0:02:14.640 5756 kbps 10160 kbps 01:33:15.760 7593 kbps 01:33:23.280 6804 kbps 01:33:51.600 28780 bytes 123480 bytes 01:33:35.920
18 1:34:14.640 0:02:08.079 6790 kbps 12018 kbps 01:36:09.640 10612 kbps 01:36:08.439 9079 kbps 01:34:17.720 33951 bytes 164224 bytes 01:35:28.160
19 1:36:22.720 0:02:59.239 6969 kbps 11128 kbps 01:36:26.000 9971 kbps 01:38:12.000 9837 kbps 01:38:10.320 34844 bytes 150326 bytes 01:38:35.960
20 1:39:21.960 0:01:44.519 6167 kbps 10219 kbps 01:41:05.080 7708 kbps 01:40:51.240 7531 kbps 01:40:53.320 30837 bytes 150082 bytes 01:40:06.880
21 1:41:06.479 0:04:59.440 6586 kbps 11728 kbps 01:44:21.479 10646 kbps 01:45:48.360 9226 kbps 01:45:45.840 32930 bytes 140202 bytes 01:41:46.720
22 1:46:05.920 0:04:04.559 6784 kbps 12509 kbps 01:48:06.000 10174 kbps 01:49:04.320 9117 kbps 01:48:59.240 33919 bytes 154309 bytes 01:49:56.200
23 1:50:10.479 0:02:52.200 6948 kbps 10729 kbps 01:52:48.800 9468 kbps 01:50:35.000 8662 kbps 01:50:34.200 34739 bytes 142703 bytes 01:51:31.760
24 1:53:02.680 0:01:57.319 6300 kbps 9131 kbps 01:53:48.800 7785 kbps 01:54:43.480 7238 kbps 01:53:44.280 31498 bytes 157830 bytes 01:53:17.360
25 1:55:00.000 0:03:03.279 6838 kbps 11078 kbps 01:55:16.480 9497 kbps 01:55:15.840 9033 kbps 01:55:14.800 34188 bytes 123047 bytes 01:55:04.320
26 1:58:03.280 0:01:09.280 5553 kbps 8479 kbps 01:58:32.440 6953 kbps 01:58:29.120 6657 kbps 01:58:26.600 27798 bytes 133802 bytes 01:58:56.960

STREAM DIAGNOSTICS:

File PID Type Codec Language Seconds Bitrate Bytes Packets
---- --- ---- ----- -------- -- -- - -----
00001.M2TS 4113 (0x1011) 0x1B AVC
7152,480 6620 5918343954 32269890
00001.M2TS 4352 (0x1100) 0x85 DTS-HD HR und (Undetermined) 7152,480 4244 3794683904 21560703
00001.M2TS 4353 (0x1101) 0x80 LPCM und (Undetermined) 7152,480 4614 4125596608 22888192
00001.M2TS 4608 (0x1200) 0x90 PGS eng (English) 7152,480 1

533646 3107

QUICK SUMMARY:

Disc Title: Djabe - Live In Blue (2015) BD
Disc Size: 22781654332 bytes
Protection: AACS
BD-Java: Yes
Playlist: 01001.MPLS
Size: 14783901696 bytes
Length: 1:59:12.560
Total Bitrate: 16,54 Mbps
Video: MPEG-4 AVC Video / 6620 kbps / 1080i / 25 fps / 16:9 / High Profile 4.1
Audio: Undetermined / DTS-HD High-Res Audio / 5.1 / 96 kHz / 4224 kbps / 24-bit (DTS Core: 5.1 / 48 kHz / 1509 kbps / 24-bit)
Audio: Undetermined / LPCM Audio / 2.0 / 96 kHz / 4608 kbps / 24-bit
Subtitle: English / 0,597 kbps

********************
PLAYLIST: 00002.MPLS
******************** Total Video
Title Codec Length Movie Size Disc Size Bitrate Bitrate Main Audio Track Secondary Audio Track
----- ------ ------- -- --- ------- ------- -------
00002.MPLSAVC 0:43:31 4746964992 22781654332 14,54 4,73 DTS-HD Hi-Res 5.1 4224Kbps (96kHz/24-bit) LPCM 2.0 4608Kbps (96kHz/24-bit)

DISC INFO:

Disc Title: Djabe - Live In Blue (2015) BD
Disc Size: 22781654332 bytes
Protection: AACS
BD-Java: Yes
Extras: 50Hz Content
BDInfo: 0.5.8

PLAYLIST REPORT:

Name: 00002.MPLS
Length: 0:43:31.640 (h:m:s.ms)
Size: 4746964992 bytes
Total Bitrate: 14,54 Mbps

VIDEO:

Codec Bitrate Description
----- -------
MPEG-4 AVC Video 4730 kbps 1080i / 25 fps / 16:9 / High Profile 4.1

AUDIO:

Codec Language Bitrate Description
----- -------- -------
DTS-HD High-Res Audio Undetermined 4224 kbps 5.1 / 96 kHz / 4224 kbps / 24-bit (DTS Core: 5.1 / 48 kHz / 1509 kbps / 24-bit)
LPCM Audio

Undetermined 4608 kbps 2.0 / 96 kHz / 4608 kbps / 24-bit

SUBTITLES:

Codec Language Bitrate Description
----- -------- -------
Presentation Graphics English 0,458 kbps

FILES:

Name Time In Length Size Total Bitrate
---- ------- ------ ---- -
00002.M2TS 0:00:00.000 0:43:31.640 4746964992 14541

CHAPTERS:

Number Time In Length Avg Video Rate Max 1-Sec Rate Max 1-Sec Time Max 5-Sec Rate Max 5-Sec Time Max 10Sec Rate Max 10Sec Time Avg Frame Size Max Frame Size Max Frame Time
------ ------- ------ -- --- -- --- -- -- -- --- -- ---
1 0:00:00.000 0:43:31.640 4730 kbps 9927 kbps 00:31:51.080 7337 kbps 00:31:47.600 6744 kbps 00:35:01.760 23648 bytes 142998 bytes 00:38:02.960

STREAM DIAGNOSTICS:

File PID Type Codec Language Seconds Bitrate Bytes Packets
---- --- ---- ----- -------- -- -- - -----
00002.M2TS 4113 (0x1011) 0x1B AVC
2611,480 4730 1543983737 8429736
00002.M2TS 4352 (0x1100) 0x85 DTS-HD HR und (Undetermined) 2611,480 4224 1378961408 7835007
00002.M2TS 4353 (0x1101) 0x80 LPCM und (Undetermined) 2611,480 4615 1506393952 8357248
00002.M2TS 4608 (0x1200) 0x90 PGS eng (English) 2611,480 0

149565 857

QUICK SUMMARY:

Disc Title: Djabe - Live In Blue (2015) BD
Disc Size: 22781654332 bytes
Protection: AACS
BD-Java: Yes
Playlist: 00002.MPLS
Size: 4746964992 bytes
Length: 0:43:31.640
Total Bitrate: 14,54 Mbps
Video: MPEG-4 AVC Video / 4730 kbps / 1080i / 25 fps / 16:9 / High Profile 4.1
Audio: Undetermined / DTS-HD High-Res Audio / 5.1 / 96 kHz / 4224 kbps / 24-bit (DTS Core: 5.1 / 48 kHz / 1509 kbps / 24-bit)
Audio: Undetermined / LPCM Audio / 2.0 / 96 kHz / 4608 kbps / 24-bit
Subtitle: English / 0,458 kbps

********************
PLAYLIST: 01002.MPLS
******************** Total Video
Title Codec Length Movie Size Disc Size Bitrate Bitrate Main Audio Track Secondary Audio Track
----- ------ ------- -- --- ------- ------- -------
01002.MPLSAVC 0:43:31 4746964992 22781654332 14,54 4,73 DTS-HD Hi-Res 5.1 4224Kbps (96kHz/24-bit) LPCM 2.0 4608Kbps (96kHz/24-bit)

DISC INFO:

Disc Title: Djabe - Live In Blue (2015) BD
Disc Size: 22781654332 bytes
Protection: AACS
BD-Java: Yes
Extras: 50Hz Content
BDInfo: 0.5.8

PLAYLIST REPORT:

Name: 01002.MPLS
Length: 0:43:31.640 (h:m:s.ms)
Size: 4746964992 bytes
Total Bitrate: 14,54 Mbps

VIDEO:

Codec Bitrate Description
----- -------
MPEG-4 AVC Video 4730 kbps 1080i / 25 fps / 16:9 / High Profile 4.1

AUDIO:

Codec Language Bitrate Description
----- -------- -------
DTS-HD High-Res Audio Undetermined 4224 kbps 5.1 / 96 kHz / 4224 kbps / 24-bit (DTS Core: 5.1 / 48 kHz / 1509 kbps / 24-bit)
LPCM Audio

Undetermined 4608 kbps 2.0 / 96 kHz / 4608 kbps / 24-bit

SUBTITLES:

Codec Language Bitrate Description
----- -------- -------
Presentation Graphics English 0,458 kbps

FILES:

Name Time In Length Size Total Bitrate
---- ------- ------ ---- -
00002.M2TS 0:00:00.000 0:43:31.640 4746964992 14541

CHAPTERS:

Number Time In Length Avg Video Rate Max 1-Sec Rate Max 1-Sec Time Max 5-Sec Rate Max 5-Sec Time Max 10Sec Rate Max 10Sec Time Avg Frame Size Max Frame Size Max Frame Time
------ ------- ------ -- --- -- --- -- -- -- --- -- ---
1 0:00:00.000 0:07:18.200 4752 kbps 7503 kbps 00:00:00.240 6261 kbps 00:03:30.440 5635 kbps 00:03:16.280 23758 bytes 137815 bytes 00:00:58.639
2 0:07:18.200 0:07:10.800 4750 kbps 8744 kbps 00:08:12.040 7002 kbps 00:10:05.960 6649 kbps 00:09:59.440 23750 bytes 133448 bytes 00:08:52.200
3 0:14:29.000 0:06:13.079 4682 kbps 7908 kbps 00:16:46.320 6920 kbps 00:16:46.119 6058 kbps 00:16:41.080 23411 bytes 110516 bytes 00:17:45.320
4 0:20:42.080 0:05:20.159 4936 kbps 8137 kbps 00:21:36.400 6970 kbps 00:22:38.960 6447 kbps 00:22:37.600 24682 bytes 123299 bytes 00:21:24.920
5 0:26:02.239 0:06:04.120 4634 kbps 9927 kbps 00:31:51.080 7337 kbps 00:31:47.600 6471 kbps 00:31:22.240 23170 bytes 129954 bytes 00:29:20.040
6 0:32:06.360 0:03:54.639 4759 kbps 8147 kbps 00:33:15.560 6822 kbps 00:35:06.800 6744 kbps 00:35:01.760 23796 bytes 107735 bytes 00:32:32.440
7 0:36:01.000 0:07:30.639 4642 kbps 8883 kbps 00:43:01.160 6403 kbps 00:43:17.200 6032 kbps 00:43:11.160 23213 bytes 142998 bytes 00:38:02.960

STREAM DIAGNOSTICS:

File PID Type Codec Language Seconds Bitrate Bytes Packets
---- --- ---- ----- -------- -- -- - -----
00002.M2TS 4113 (0x1011) 0x1B AVC
2611,480 4730 1543983737 8429736
00002.M2TS 4352 (0x1100) 0x85 DTS-HD HR und (Undetermined) 2611,480 4224 1378961408 7835007
00002.M2TS 4353 (0x1101) 0x80 LPCM und (Undetermined) 2611,480 4615 1506393952 8357248
00002.M2TS 4608 (0x1200) 0x90 PGS eng (English) 2611,480 0

149565 857

QUICK SUMMARY:

Disc Title: Djabe - Live In Blue (2015) BD
Disc Size: 22781654332 bytes
Protection: AACS
BD-Java: Yes
Playlist: 01002.MPLS
Size: 4746964992 bytes
Length: 0:43:31.640
Total Bitrate: 14,54 Mbps
Video: MPEG-4 AVC Video / 4730 kbps / 1080i / 25 fps / 16:9 / High Profile 4.1
Audio: Undetermined / DTS-HD High-Res Audio / 5.1 / 96 kHz / 4224 kbps / 24-bit (DTS Core: 5.1 / 48 kHz / 1509 kbps / 24-bit)
Audio: Undetermined / LPCM Audio / 2.0 / 96 kHz / 4608 kbps / 24-bit
Subtitle: English / 0,458 kbps

********************
PLAYLIST: 00003.MPLS
******************** Total Video
Title Codec Length Movie Size Disc Size Bitrate Bitrate Main Audio Track Secondary Audio Track
----- ------ ------- -- --- ------- ------- -------
00003.MPLSAVC 0:12:25 1539790848 22781654332 16,51 6,62 DTS-HD Hi-Res 5.1 4224Kbps (96kHz/24-bit) LPCM 2.0 4608Kbps (96kHz/24-bit)

DISC INFO:

Disc Title: Djabe - Live In Blue (2015) BD
Disc Size: 22781654332 bytes
Protection: AACS
BD-Java: Yes
Extras: 50Hz Content
BDInfo: 0.5.8

PLAYLIST REPORT:

Name: 00003.MPLS
Length: 0:12:25.960 (h:m:s.ms)
Size: 1539790848 bytes
Total Bitrate: 16,51 Mbps

VIDEO:

Codec Bitrate Description
----- -------
MPEG-4 AVC Video 6620 kbps 1080i / 25 fps / 16:9 / High Profile 4.1

AUDIO:

Codec Language Bitrate Description
----- -------- -------
DTS-HD High-Res Audio Undetermined 4224 kbps 5.1 / 96 kHz / 4224 kbps / 24-bit (DTS Core: 5.1 / 48 kHz / 1509 kbps / 24-bit)
LPCM Audio

Undetermined 4608 kbps 2.0 / 96 kHz / 4608 kbps / 24-bit

FILES:

Name Time In Length Size Total Bitrate
---- ------- ------ ---- -
00003.M2TS 0:00:00.000 0:12:25.960 1539790848 16513

CHAPTERS:

Number Time In Length Avg Video Rate Max 1-Sec Rate Max 1-Sec Time Max 5-Sec Rate Max 5-Sec Time Max 10Sec Rate Max 10Sec Time Avg Frame Size Max Frame Size Max Frame Time
------ ------- ------ -- --- -- --- -- -- -- --- -- ---
1 0:00:00.000 0:12:25.960 6620 kbps 11585 kbps 00:06:07.880 9359 kbps 00:03:56.919 8132 kbps 00:03:56.640 33100 bytes 168341 bytes 00:00:01.000

STREAM DIAGNOSTICS:

File PID Type Codec Language Seconds Bitrate Bytes Packets
---- --- ---- ----- -------- -- -- - -----
00003.M2TS 4113 (0x1011) 0x1B AVC
745,880 6621 617277041 3365761
00003.M2TS 4352 (0x1100) 0x85 DTS-HD HR und (Undetermined) 745,880 4225 393902080 2238079
00003.M2TS 4353 (0x1101) 0x80 LPCM und (Undetermined) 745,880 4615 430269728 2387072

QUICK SUMMARY:

Disc Title: Djabe - Live In Blue (2015) BD
Disc Size: 22781654332 bytes
Protection: AACS
BD-Java: Yes
Playlist: 00003.MPLS
Size: 1539790848 bytes
Length: 0:12:25.960
Total Bitrate: 16,51 Mbps
Video: MPEG-4 AVC Video / 6620 kbps / 1080i / 25 fps / 16:9 / High Profile 4.1
Audio: Undetermined / DTS-HD High-Res Audio / 5.1 / 96 kHz / 4224 kbps / 24-bit (DTS Core: 5.1 / 48 kHz / 1509 kbps / 24-bit)
Audio: Undetermined / LPCM Audio / 2.0 / 96 kHz / 4608 kbps / 24-bit

********************
PLAYLIST: 01003.MPLS
******************** Total Video
Title Codec Length Movie Size Disc Size Bitrate Bitrate Main Audio Track Secondary Audio Track
----- ------ ------- -- --- ------- ------- -------
01003.MPLSAVC 0:12:25 1539790848 22781654332 16,51 6,62 DTS-HD Hi-Res 5.1 4224Kbps (96kHz/24-bit) LPCM 2.0 4608Kbps (96kHz/24-bit)

DISC INFO:

Disc Title: Djabe - Live In Blue (2015) BD
Disc Size: 22781654332 bytes
Protection: AACS
BD-Java: Yes
Extras: 50Hz Content
BDInfo: 0.5.8

PLAYLIST REPORT:

Name: 01003.MPLS
Length: 0:12:25.960 (h:m:s.ms)
Size: 1539790848 bytes
Total Bitrate: 16,51 Mbps

VIDEO:

Codec Bitrate Description
----- -------
MPEG-4 AVC Video 6620 kbps 1080i / 25 fps / 16:9 / High Profile 4.1

AUDIO:

Codec Language Bitrate Description
----- -------- -------
DTS-HD High-Res Audio Undetermined 4224 kbps 5.1 / 96 kHz / 4224 kbps / 24-bit (DTS Core: 5.1 / 48 kHz / 1509 kbps / 24-bit)
LPCM Audio

Undetermined 4608 kbps 2.0 / 96 kHz / 4608 kbps / 24-bit

FILES:

Name Time In Length Size Total Bitrate
---- ------- ------ ---- -
00003.M2TS 0:00:00.000 0:12:25.960 1539790848 16513

CHAPTERS:

Number Time In Length Avg Video Rate Max 1-Sec Rate Max 1-Sec Time Max 5-Sec Rate Max 5-Sec Time Max 10Sec Rate Max 10Sec Time Avg Frame Size Max Frame Size Max Frame Time
------ ------- ------ -- --- -- --- -- -- -- --- -- ---
1 0:00:00.000 0:04:39.240 6649 kbps 10461 kbps 00:03:57.000 9359 kbps 00:03:56.919 8132 kbps 00:03:56.640 33238 bytes 168341 bytes 00:00:01.000
2 0:04:39.240 0:03:57.319 6645 kbps 11585 kbps 00:06:07.880 8720 kbps 00:05:45.320 7990 kbps 00:04:57.960 33223 bytes 148365 bytes 00:08:06.040
3 0:08:36.559 0:01:58.840 6801 kbps 10867 kbps 00:08:37.520 8622 kbps 00:09:16.000 7761 kbps 00:09:10.640 34006 bytes 147812 bytes 00:08:38.480
4 0:10:35.400 0:01:50.559 6300 kbps 9632 kbps 00:11:27.440 8563 kbps 00:11:10.839 8102 kbps 00:11:05.800 31512 bytes 124883 bytes 00:12:17.000

STREAM DIAGNOSTICS:

File PID Type Codec Language Seconds Bitrate Bytes Packets
---- --- ---- ----- -------- -- -- - -----
00003.M2TS 4113 (0x1011) 0x1B AVC
745,880 6621 617277041 3365761
00003.M2TS 4352 (0x1100) 0x85 DTS-HD HR und (Undetermined) 745,880 4225 393902080 2238079
00003.M2TS 4353 (0x1101) 0x80 LPCM und (Undetermined) 745,880 4615 430269728 2387072

QUICK SUMMARY:

Disc Title: Djabe - Live In Blue (2015) BD
Disc Size: 22781654332 bytes
Protection: AACS
BD-Java: Yes
Playlist: 01003.MPLS
Size: 1539790848 bytes
Length: 0:12:25.960
Total Bitrate: 16,51 Mbps
Video: MPEG-4 AVC Video / 6620 kbps / 1080i / 25 fps / 16:9 / High Profile 4.1
Audio: Undetermined / DTS-HD High-Res Audio / 5.1 / 96 kHz / 4224 kbps / 24-bit (DTS Core: 5.1 / 48 kHz / 1509 kbps / 24-bit)
Audio: Undetermined / LPCM Audio / 2.0 / 96 kHz / 4608 kbps / 24-bit

********************
PLAYLIST: 00005.MPLS
******************** Total Video
Title Codec Length Movie Size Disc Size Bitrate Bitrate Main Audio Track Secondary Audio Track
----- ------ ------- -- --- ------- ------- -------
00005.MPLSAVC 0:06:59 852940800 22781654332 16,25 6,78 DTS-HD Hi-Res 5.1 3840Kbps (48kHz/24-bit) LPCM 2.0 4608Kbps (96kHz/24-bit)

DISC INFO:

Disc Title: Djabe - Live In Blue (2015) BD
Disc Size: 22781654332 bytes
Protection: AACS
BD-Java: Yes
Extras: 50Hz Content
BDInfo: 0.5.8

PLAYLIST REPORT:

Name: 00005.MPLS
Length: 0:06:59.919 (h:m:s.ms)
Size: 852940800 bytes
Total Bitrate: 16,25 Mbps

VIDEO:

Codec Bitrate Description
----- -------
MPEG-4 AVC Video 6781 kbps 1080i / 25 fps / 16:9 / High Profile 4.1

AUDIO:

Codec Language Bitrate Description
----- -------- -------
DTS-HD High-Res Audio Undetermined 3840 kbps 5.1 / 48 kHz / 3840 kbps / 24-bit (DTS Core: 5.1 / 48 kHz / 1509 kbps / 24-bit)
LPCM Audio

Undetermined 4608 kbps 2.0 / 96 kHz / 4608 kbps / 24-bit

FILES:

Name Time In Length Size Total Bitrate
---- ------- ------ ---- -
00005.M2TS 0:00:00.000 0:06:59.919 852940800 16250

CHAPTERS:

Number Time In Length Avg Video Rate Max 1-Sec Rate Max 1-Sec Time Max 5-Sec Rate Max 5-Sec Time Max 10Sec Rate Max 10Sec Time Avg Frame Size Max Frame Size Max Frame Time
------ ------- ------ -- --- -- --- -- -- -- --- -- ---
1 0:00:00.000 0:06:59.919 6781 kbps 21874 kbps 00:06:58.799 10485 kbps 00:00:50.039 9016 kbps 00:06:13.320 33906 bytes 263085 bytes 00:06:59.159

STREAM DIAGNOSTICS:

File PID Type Codec Language Seconds Bitrate Bytes Packets
---- --- ---- ----- -------- -- -- - -----
00005.M2TS 4113 (0x1011) 0x1B AVC
419,800 6783 355942478 1940681
00005.M2TS 4352 (0x1100) 0x85 DTS-HD HR und (Undetermined) 419,800 3841 201574400 1141729
00005.M2TS 4353 (0x1101) 0x80 LPCM und (Undetermined) 419,800 4616 242209856 1343744

QUICK SUMMARY:

Disc Title: Djabe - Live In Blue (2015) BD
Disc Size: 22781654332 bytes
Protection: AACS
BD-Java: Yes
Playlist: 00005.MPLS
Size: 852940800 bytes
Length: 0:06:59.919
Total Bitrate: 16,25 Mbps
Video: MPEG-4 AVC Video / 6781 kbps / 1080i / 25 fps / 16:9 / High Profile 4.1
Audio: Undetermined / DTS-HD High-Res Audio / 5.1 / 48 kHz / 3840 kbps / 24-bit (DTS Core: 5.1 / 48 kHz / 1509 kbps / 24-bit)
Audio: Undetermined / LPCM Audio / 2.0 / 96 kHz / 4608 kbps / 24-bit

********************
PLAYLIST: 01005.MPLS
******************** Total Video
Title Codec Length Movie Size Disc Size Bitrate Bitrate Main Audio Track Secondary Audio Track
----- ------ ------- -- --- ------- ------- -------
01005.MPLSAVC 0:06:59 852940800 22781654332 16,25 6,78 DTS-HD Hi-Res 5.1 3840Kbps (48kHz/24-bit) LPCM 2.0 4608Kbps (96kHz/24-bit)

DISC INFO:

Disc Title: Djabe - Live In Blue (2015) BD
Disc Size: 22781654332 bytes
Protection: AACS
BD-Java: Yes
Extras: 50Hz Content
BDInfo: 0.5.8

PLAYLIST REPORT:

Name: 01005.MPLS
Length: 0:06:59.919 (h:m:s.ms)
Size: 852940800 bytes
Total Bitrate: 16,25 Mbps

VIDEO:

Codec Bitrate Description
----- -------
MPEG-4 AVC Video 6781 kbps 1080i / 25 fps / 16:9 / High Profile 4.1

AUDIO:

Codec Language Bitrate Description
----- -------- -------
DTS-HD High-Res Audio Undetermined 3840 kbps 5.1 / 48 kHz / 3840 kbps / 24-bit (DTS Core: 5.1 / 48 kHz / 1509 kbps / 24-bit)
LPCM Audio

Undetermined 4608 kbps 2.0 / 96 kHz / 4608 kbps / 24-bit

FILES:

Name Time In Length Size Total Bitrate
---- ------- ------ ---- -
00005.M2TS 0:00:00.000 0:06:59.919 852940800 16250

CHAPTERS:

Number Time In Length Avg Video Rate Max 1-Sec Rate Max 1-Sec Time Max 5-Sec Rate Max 5-Sec Time Max 10Sec Rate Max 10Sec Time Avg Frame Size Max Frame Size Max Frame Time
------ ------- ------ -- --- -- --- -- -- -- --- -- ---
1 0:00:00.000 0:06:59.919 6781 kbps 21874 kbps 00:06:58.799 10485 kbps 00:00:50.039 9016 kbps 00:06:13.320 33906 bytes 263085 bytes 00:06:59.159

STREAM DIAGNOSTICS:

File PID Type Codec Language Seconds Bitrate Bytes Packets
---- --- ---- ----- -------- -- -- - -----
00005.M2TS 4113 (0x1011) 0x1B AVC
419,800 6783 355942478 1940681
00005.M2TS 4352 (0x1100) 0x85 DTS-HD HR und (Undetermined) 419,800 3841 201574400 1141729
00005.M2TS 4353 (0x1101) 0x80 LPCM und (Undetermined) 419,800 4616 242209856 1343744

QUICK SUMMARY:

Disc Title: Djabe - Live In Blue (2015) BD
Disc Size: 22781654332 bytes
Protection: AACS
BD-Java: Yes
Playlist: 01005.MPLS
Size: 852940800 bytes
Length: 0:06:59.919
Total Bitrate: 16,25 Mbps
Video: MPEG-4 AVC Video / 6781 kbps / 1080i / 25 fps / 16:9 / High Profile 4.1
Audio: Undetermined / DTS-HD High-Res Audio / 5.1 / 48 kHz / 3840 kbps / 24-bit (DTS Core: 5.1 / 48 kHz / 1509 kbps / 24-bit)
Audio: Undetermined / LPCM Audio / 2.0 / 96 kHz / 4608 kbps / 24-bit

********************
PLAYLIST: 00004.MPLS
******************** Total Video
Title Codec Length Movie Size Disc Size Bitrate Bitrate Main Audio Track Secondary Audio Track
----- ------ ------- -- --- ------- ------- -------
00004.MPLSAVC 0:05:56 735645696 22781654332 16,53 6,64 DTS-HD Hi-Res 5.1 4224Kbps (96kHz/24-bit) LPCM 2.0 4608Kbps (96kHz/24-bit)

DISC INFO:

Disc Title: Djabe - Live In Blue (2015) BD
Disc Size: 22781654332 bytes
Protection: AACS
BD-Java: Yes
Extras: 50Hz Content
BDInfo: 0.5.8

PLAYLIST REPORT:

Name: 00004.MPLS
Length: 0:05:56.000 (h:m:s.ms)
Size: 735645696 bytes
Total Bitrate: 16,53 Mbps

VIDEO:

Codec Bitrate Description
----- -------
MPEG-4 AVC Video 6638 kbps 1080i / 25 fps / 16:9 / High Profile 4.1

AUDIO:

Codec Language Bitrate Description
----- -------- -------
DTS-HD High-Res Audio Undetermined 4224 kbps 5.1 / 96 kHz / 4224 kbps / 24-bit (DTS Core: 5.1 / 48 kHz / 1509 kbps / 24-bit)
LPCM Audio

Undetermined 4608 kbps 2.0 / 96 kHz / 4608 kbps / 24-bit

FILES:

Name Time In Length Size Total Bitrate
---- ------- ------ ---- -
00004.M2TS 0:00:00.000 0:05:56.000 735645696 16531

CHAPTERS:

Number Time In Length Avg Video Rate Max 1-Sec Rate Max 1-Sec Time Max 5-Sec Rate Max 5-Sec Time Max 10Sec Rate Max 10Sec Time Avg Frame Size Max Frame Size Max Frame Time
------ ------- ------ -- --- -- --- -- -- -- --- -- ---
1 0:00:00.000 0:05:56.000 6638 kbps 11388 kbps 00:03:27.120 10196 kbps 00:03:27.120 8916 kbps 00:03:27.120 33188 bytes 186418 bytes 00:00:48.919

STREAM DIAGNOSTICS:

File PID Type Codec Language Seconds Bitrate Bytes Packets
---- --- ---- ----- -------- -- -- - -----
00004.M2TS 4113 (0x1011) 0x1B AVC
355,800 6641 295368980 1610462
00004.M2TS 4352 (0x1100) 0x85 DTS-HD HR und (Undetermined) 355,800 4227 187979264 1068063
00004.M2TS 4353 (0x1101) 0x80 LPCM und (Undetermined) 355,800 4617 205340800 1139200

QUICK SUMMARY:

Disc Title: Djabe - Live In Blue (2015) BD
Disc Size: 22781654332 bytes
Protection: AACS
BD-Java: Yes
Playlist: 00004.MPLS
Size: 735645696 bytes
Length: 0:05:56.000
Total Bitrate: 16,53 Mbps
Video: MPEG-4 AVC Video / 6638 kbps / 1080i / 25 fps / 16:9 / High Profile 4.1
Audio: Undetermined / DTS-HD High-Res Audio / 5.1 / 96 kHz / 4224 kbps / 24-bit (DTS Core: 5.1 / 48 kHz / 1509 kbps / 24-bit)
Audio: Undetermined / LPCM Audio / 2.0 / 96 kHz / 4608 kbps / 24-bit

********************
PLAYLIST: 01004.MPLS
******************** Total Video
Title Codec Length Movie Size Disc Size Bitrate Bitrate Main Audio Track Secondary Audio Track
----- ------ ------- -- --- ------- ------- -------
01004.MPLSAVC 0:05:56 735645696 22781654332 16,53 6,64 DTS-HD Hi-Res 5.1 4224Kbps (96kHz/24-bit) LPCM 2.0 4608Kbps (96kHz/24-bit)

DISC INFO:

Disc Title: Djabe - Live In Blue (2015) BD
Disc Size: 22781654332 bytes
Protection: AACS
BD-Java: Yes
Extras: 50Hz Content
BDInfo: 0.5.8

PLAYLIST REPORT:

Name: 01004.MPLS
Length: 0:05:56.000 (h:m:s.ms)
Size: 735645696 bytes
Total Bitrate: 16,53 Mbps

VIDEO:

Codec Bitrate Description
----- -------
MPEG-4 AVC Video 6638 kbps 1080i / 25 fps / 16:9 / High Profile 4.1

AUDIO:

Codec Language Bitrate Description
----- -------- -------
DTS-HD High-Res Audio Undetermined 4224 kbps 5.1 / 96 kHz / 4224 kbps / 24-bit (DTS Core: 5.1 / 48 kHz / 1509 kbps / 24-bit)
LPCM Audio

Undetermined 4608 kbps 2.0 / 96 kHz / 4608 kbps / 24-bit

FILES:

Name Time In Length Size Total Bitrate
---- ------- ------ ---- -
00004.M2TS 0:00:00.000 0:05:56.000 735645696 16531

CHAPTERS:

Number Time In Length Avg Video Rate Max 1-Sec Rate Max 1-Sec Time Max 5-Sec Rate Max 5-Sec Time Max 10Sec Rate Max 10Sec Time Avg Frame Size Max Frame Size Max Frame Time
------ ------- ------ -- --- -- --- -- -- -- --- -- ---
1 0:00:00.000 0:05:56.000 6638 kbps 11388 kbps 00:03:27.120 10196 kbps 00:03:27.120 8916 kbps 00:03:27.120 33188 bytes 186418 bytes 00:00:48.919

STREAM DIAGNOSTICS:

File PID Type Codec Language Seconds Bitrate Bytes Packets
---- --- ---- ----- -------- -- -- - -----
00004.M2TS 4113 (0x1011) 0x1B AVC
355,800 6641 295368980 1610462
00004.M2TS 4352 (0x1100) 0x85 DTS-HD HR und (Undetermined) 355,800 4227 187979264 1068063
00004.M2TS 4353 (0x1101) 0x80 LPCM und (Undetermined) 355,800 4617 205340800 1139200

QUICK SUMMARY:

Disc Title: Djabe - Live In Blue (2015) BD
Disc Size: 22781654332 bytes
Protection: AACS
BD-Java: Yes
Playlist: 01004.MPLS
Size: 735645696 bytes
Length: 0:05:56.000
Total Bitrate: 16,53 Mbps
Video: MPEG-4 AVC Video / 6638 kbps / 1080i / 25 fps / 16:9 / High Profile 4.1
Audio: Undetermined / DTS-HD High-Res Audio / 5.1 / 96 kHz / 4224 kbps / 24-bit (DTS Core: 5.1 / 48 kHz / 1509 kbps / 24-bit)
Audio: Undetermined / LPCM Audio / 2.0 / 96 kHz / 4608 kbps / 24-bit

Djabe with Steve Hackett, Gulli Briem and John Nugent - Live In Blue (2015) Blu-ray

Djabe with Steve Hackett, Gulli Briem and John Nugent - Live In Blue (2015) Blu-ray

Djabe with Steve Hackett, Gulli Briem and John Nugent - Live In Blue (2015) Blu-ray

Djabe with Steve Hackett, Gulli Briem and John Nugent - Live In Blue (2015) Blu-ray

Djabe with Steve Hackett, Gulli Briem and John Nugent - Live In Blue (2015) Blu-ray

Djabe with Steve Hackett, Gulli Briem and John Nugent - Live In Blue (2015) Blu-ray

Djabe with Steve Hackett, Gulli Briem and John Nugent - Live In Blue (2015) Blu-ray

Djabe with Steve Hackett, Gulli Briem and John Nugent - Live In Blue (2015) Blu-ray

Djabe with Steve Hackett, Gulli Briem and John Nugent - Live In Blue (2015) Blu-ray

Djabe with Steve Hackett, Gulli Briem and John Nugent - Live In Blue (2015) Blu-ray



DOWNLOAD LINKS
Buy Premium From My Links To Get Resumable Support & Max Speed & To Support Me

Rapidgator.net:
http://rapidgator.net/file/0ca20ebae649ad7c65d2274e12c19b94/9cezz.D.w.S.H.G.B.a.J.N.L.I.B.2015.B.part01.rar.html
http://rapidgator.net/file/ee2927b4f5431ee9b12542a47b98acad/9cezz.D.w.S.H.G.B.a.J.N.L.I.B.2015.B.part02.rar.html
http://rapidgator.net/file/826d9b5e32954dca498e9456196ca4f5/9cezz.D.w.S.H.G.B.a.J.N.L.I.B.2015.B.part03.rar.html
http://rapidgator.net/file/2525c2c01f53a9d06c290954157a1753/9cezz.D.w.S.H.G.B.a.J.N.L.I.B.2015.B.part04.rar.html
http://rapidgator.net/file/692b200fc92f84176507da42b8b97406/9cezz.D.w.S.H.G.B.a.J.N.L.I.B.2015.B.part05.rar.html
http://rapidgator.net/file/4324e3a567b8ec13387c60e2c90505db/9cezz.D.w.S.H.G.B.a.J.N.L.I.B.2015.B.part06.rar.html
http://rapidgator.net/file/7ed09a7d97785b89e5a73e4ea1dcba10/9cezz.D.w.S.H.G.B.a.J.N.L.I.B.2015.B.part07.rar.html
http://rapidgator.net/file/a42a7bf181d77c3a9dcc44ef87a91a4c/9cezz.D.w.S.H.G.B.a.J.N.L.I.B.2015.B.part08.rar.html
http://rapidgator.net/file/352bbcf29ac0f27311103687e6dc24d5/9cezz.D.w.S.H.G.B.a.J.N.L.I.B.2015.B.part09.rar.html
http://rapidgator.net/file/8d511301f420fe06777872e332253ddf/9cezz.D.w.S.H.G.B.a.J.N.L.I.B.2015.B.part10.rar.html
http://rapidgator.net/file/4d35776f6ab6d10d8afc1061b9e00b6e/9cezz.D.w.S.H.G.B.a.J.N.L.I.B.2015.B.part11.rar.html
http://rapidgator.net/file/996b07338817fb7cba2e20426a92886f/9cezz.D.w.S.H.G.B.a.J.N.L.I.B.2015.B.part12.rar.html
http://rapidgator.net/file/16f0d8b728013052997354741372729b/9cezz.D.w.S.H.G.B.a.J.N.L.I.B.2015.B.part13.rar.html
http://rapidgator.net/file/07564ba55750ba9b37daa4a33cfb6264/9cezz.D.w.S.H.G.B.a.J.N.L.I.B.2015.B.part14.rar.html
http://rapidgator.net/file/abbb5d6d1bdef24a982542a5218ff462/9cezz.D.w.S.H.G.B.a.J.N.L.I.B.2015.B.part15.rar.html
http://rapidgator.net/file/76d3df4e0243151bf0b9324d57505db5/9cezz.D.w.S.H.G.B.a.J.N.L.I.B.2015.B.part16.rar.html
http://rapidgator.net/file/f412670cd2602944641b78ed4e50f199/9cezz.D.w.S.H.G.B.a.J.N.L.I.B.2015.B.part17.rar.html
http://rapidgator.net/file/ee7865d47da8ee34bd28ab3ef78dc5a5/9cezz.D.w.S.H.G.B.a.J.N.L.I.B.2015.B.part18.rar.html
http://rapidgator.net/file/ebdd2683189929edecd37dcfbd1ac547/9cezz.D.w.S.H.G.B.a.J.N.L.I.B.2015.B.part19.rar.html
http://rapidgator.net/file/e0a9e96674e41db4d0f16168e8f68f3b/9cezz.D.w.S.H.G.B.a.J.N.L.I.B.2015.B.part20.rar.html
http://rapidgator.net/file/8ede3493e776524e451f9454c0634ddb/9cezz.D.w.S.H.G.B.a.J.N.L.I.B.2015.B.part21.rar.html
http://rapidgator.net/file/49d9adc8cc422fd6fb64688c70f8c105/9cezz.D.w.S.H.G.B.a.J.N.L.I.B.2015.B.part22.rar.html
http://rapidgator.net/file/9ea442a93f668395164c4127bb0d5c36/9cezz.D.w.S.H.G.B.a.J.N.L.I.B.2015.B.part23.rar.html
http://rapidgator.net/file/6b7b41bbe298d74bb658ba9ce2794bc0/9cezz.D.w.S.H.G.B.a.J.N.L.I.B.2015.B.part24.rar.html
http://rapidgator.net/file/86b40619fe9d6234bb7ad2996d412f08/9cezz.D.w.S.H.G.B.a.J.N.L.I.B.2015.B.part25.rar.html
http://rapidgator.net/file/daca35ff6a09e7b648d65868dc4b864f/9cezz.D.w.S.H.G.B.a.J.N.L.I.B.2015.B.part26.rar.html
http://rapidgator.net/file/2ac6fe84f547dff76cd0136fe71d4296/9cezz.D.w.S.H.G.B.a.J.N.L.I.B.2015.B.part27.rar.html
http://rapidgator.net/file/82cb0880b7c13ad6a28d4c147462c6a1/9cezz.D.w.S.H.G.B.a.J.N.L.I.B.2015.B.part28.rar.html
http://rapidgator.net/file/06c767d5b62c42c4f5ae1afe39587ac4/9cezz.D.w.S.H.G.B.a.J.N.L.I.B.2015.B.part29.rar.html
http://rapidgator.net/file/17662338e2091d69e9edf6c0cbac0dd3/9cezz.D.w.S.H.G.B.a.J.N.L.I.B.2015.B.part30.rar.html
http://rapidgator.net/file/db124e48f0ee92c8c061b4ecb00a41ee/9cezz.D.w.S.H.G.B.a.J.N.L.I.B.2015.B.part31.rar.html
http://rapidgator.net/file/e2024cb6515393beefcff8d15a8f5484/9cezz.D.w.S.H.G.B.a.J.N.L.I.B.2015.B.part32.rar.html
http://rapidgator.net/file/56a255e2ba5887e521c2ab717718e814/9cezz.D.w.S.H.G.B.a.J.N.L.I.B.2015.B.part33.rar.html
http://rapidgator.net/file/c94873fc6a016cc793f7c081326215de/9cezz.D.w.S.H.G.B.a.J.N.L.I.B.2015.B.part34.rar.html
http://rapidgator.net/file/d6e1408a693d4f2af9f62ed2e261eab2/9cezz.D.w.S.H.G.B.a.J.N.L.I.B.2015.B.part35.rar.html
http://rapidgator.net/file/b2c8c52917fc0cdf70984f8991550c70/9cezz.D.w.S.H.G.B.a.J.N.L.I.B.2015.B.part36.rar.html
http://rapidgator.net/file/f1e2b7c75d099586670df02ae8576e69/9cezz.D.w.S.H.G.B.a.J.N.L.I.B.2015.B.part37.rar.html
http://rapidgator.net/file/c2053f932c1ef2927e8b19ec501d37f8/9cezz.D.w.S.H.G.B.a.J.N.L.I.B.2015.B.part38.rar.html
Mirror Links

Direct Download

Tags: Hackett, Nugent

Djabe with Steve Hackett, Gulli Briem and John Nugent - Live In Blue (2015) Blu-ray Download via Hotfile Rapidshare Fileserve Megaupload & FileSonic, Djabe with Steve Hackett, Gulli Briem and John Nugent - Live In Blue (2015) Blu-ray free torrent downloads included crack, serial, keygen.


Attention!Information

Members of Guest cannot leave comments.