Lonnie Smith - Drives (1970) {2009 Japan 24-bit Remaster New Note Classics Series TOCJ-6756}

Download Now


Lonnie Smith - Drives (1970) {2009 Japan 24-bit Remaster New Note Classics Series TOCJ-6756}
Lonnie Smith - Drives (1970) {2009 Japan 24-bit Remaster New Note Classics Series TOCJ-6756}
EAC rip (secure mode) | FLAC (tracks)+CUE+LOG -> 234 Mb | MP3 @320 -> 87 Mb
Full Artwork @ 600 dpi (png) -> 219 Mb | 5% repair rar | 24-bit remaster
© 2009 EMI Music Japan / Blue Note | TOCJ-6756
Jazz / Soul Jazz / Jazz Funk / Organ

"Lonnie Smith had the raw skills, imagination, and versatility to play burning originals, bluesy covers of R&B and pop, or skillful adaptations of conventional jazz pieces and show tunes. Why he never established himself as a consistent performer remains a mystery, but this 1970 reissue shows why he excited so many people during his rise. Smith's solos on "Spinning Wheel" and his own composition, "Psychedelic PI," are fleet and furious, boosting the songs from interesting to arresting. He's also impressive on "Seven Steps to Heaven," while the array of phrases, rhythms, and voicings on "Who's Afraid of Virginia Woolf?" demonstrate a mastery of the organ's pedals and keys rivaling that of the instrument's king, Jimmy Smith."

Lonnie Smith - Drives (1970) {2009 Japan 24-bit Remaster New Note Classics Series TOCJ-6756}


Personnel:
Lonnie Smith - organ
Dave Hubbard - tenor saxophone
Ronnie Cuber - baritone saxophone
Larry McGee - guitar
Joe Dukes - drums

Lonnie Smith - Drives (1970) {2009 Japan 24-bit Remaster New Note Classics Series TOCJ-6756}


tracklist:
01 - Twenty Five Miles
02 - Spinning Wheel
03 - Seven Steps To Heaven
04 - Psychedelic Pi
05 - Who's Afraid Of Virginia Woolf

Exact Audio Copy V1.0 beta 4 from 7. December 2014

EAC extraction logfile from 15. June 2015, 12:23

Lonnie Smith / Drives

Used drive : ATAPI iHAS124 B Adapter: 1 ID: 0

Read mode : Secure
Utilize accurate stream : Yes
Defeat audio cache : Yes
Make use of C2 pointers : No

Read offset correction

: 6
Overread into Lead-In and Lead-Out : No
Fill up missing offset samples with silence : Yes
Delete leading and trailing silent blocks : No
Null samples used in CRC calculations : Yes
Used interface
: Native Win32 interface for Win NT & 2000
Gap handling
: Appended to previous track

Used output format : User Defined Encoder
Selected bitrate : 1024 kBit/s
Quality : High
Add ID3 tag : No
Command line compressor : C:\Program Files (x86)\FLAC Frontend\tools\flac.exe
Additional command line options : -8 -V -T "ARTIST=%artist%" -T "TITLE=%title%" -T "ALBUM=%albumtitle%" -T "DATE=%year%" -T "TRACKNUMBER=%tracknr%" -T "TOTALTRACKS=%numtracks%" -T "GENRE=%genre%" -T "ALBUMARTIST=%albumartist%" -T "ALBUM ARTIST=%albumartist%" -T "COMMENT=EAC Secure Mode, Test & Copy, AccurateRip, FLAC -8" %source%

TOC of the extracted CD Track | Start | Length | Start sector | End sector
1 | 0:00.00 | 5:41.42 | 0 | 25616 2 | 5:41.42 | 7:35.68 | 25617 | 59809 3 | 13:17.35 | 5:49.39 | 59810 | 86023 4 | 19:06.74 | 6:31.71 | 86024 | 115419 5 | 25:38.70 | 10:48.10 | 115420 | 164029

Track 1 Filename D:\_EAC\Lonnie Smith - Drives (1970) [FLAC] {2009 Japan 24-bit Remaster TOCJ-6756}\01 - Twenty Five Miles.wav Pre-gap length 0:00:02.00 Peak level 99.7 %
Extraction speed 3.6 X
Track quality 100.0 %
Test CRC 20A82AAA
Copy CRC 20A82AAA
Cannot be verified as accurate (confidence 1) [1E84C007], AccurateRip returned [04A0C077] (AR v2)
Copy OK

Track 2 Filename D:\_EAC\Lonnie Smith - Drives (1970) [FLAC] {2009 Japan 24-bit Remaster TOCJ-6756}\02 - Spinning Wheel.wav Pre-gap length 0:00:02.13 Peak level 99.7 %
Extraction speed 4.4 X
Track quality 100.0 %
Test CRC 2B9404A8
Copy CRC 2B9404A8
Cannot be verified as accurate (confidence 1) [88312266], AccurateRip returned [E35AFA03] (AR v2)
Copy OK

Track 3 Filename D:\_EAC\Lonnie Smith - Drives (1970) [FLAC] {2009 Japan 24-bit Remaster TOCJ-6756}\03 - Seven Steps To Heaven.wav Pre-gap length 0:00:02.42 Peak level 99.7 %
Extraction speed 4.9 X
Track quality 100.0 %
Test CRC EDF1CC5C
Copy CRC EDF1CC5C
Cannot be verified as accurate (confidence 1) [8BD909CD], AccurateRip returned [17864770] (AR v2)
Copy OK

Track 4 Filename D:\_EAC\Lonnie Smith - Drives (1970) [FLAC] {2009 Japan 24-bit Remaster TOCJ-6756}\04 - Psychedelic Pi.wav Pre-gap length 0:00:03.20 Peak level 99.7 %
Extraction speed 5.4 X
Track quality 100.0 %
Test CRC 90BAB1DF
Copy CRC 90BAB1DF
Cannot be verified as accurate (confidence 1) [F6EA6A73], AccurateRip returned [4189246B] (AR v2)
Copy OK

Track 5 Filename D:\_EAC\Lonnie Smith - Drives (1970) [FLAC] {2009 Japan 24-bit Remaster TOCJ-6756}\05 - Who's Afraid Of Virginia Woolf.wav Pre-gap length 0:00:02.13 Peak level 99.7 %
Extraction speed 6.1 X
Track quality 100.0 %
Test CRC 7A30CF11
Copy CRC 7A30CF11
Cannot be verified as accurate (confidence 1) [81C22715], AccurateRip returned [49D6DF3D] (AR v2)
Copy OK

No tracks could be verified as accurate
You may have a different pressing from the one(s) in the database

No errors occurred

End of status report

==== Log checksum 14A5091343D527145C64995DFB54C999F82C8B67AED2B9CA7488212F67174F22 ====

Lonnie Smith - Drives (1970) {2009 Japan 24-bit Remaster New Note Classics Series TOCJ-6756}

Lonnie Smith - Drives (1970) {2009 Japan 24-bit Remaster New Note Classics Series TOCJ-6756}

DOWNLOAD:
Buy Premium From My Links To Get Resumable Support & Max Speed & To Support Me


Links are Interchangeable - No Password

Direct Download

Tags: Lonnie, Drives, Remaster, Classics, Series

Lonnie Smith - Drives (1970) {2009 Japan 24-bit Remaster New Note Classics Series TOCJ-6756} Download via Hotfile Rapidshare Fileserve Megaupload & FileSonic, Lonnie Smith - Drives (1970) {2009 Japan 24-bit Remaster New Note Classics Series TOCJ-6756} free torrent downloads included crack, serial, keygen.


Attention!Information

Members of Guest cannot leave comments.