Jorma Kaukonen - Quah (1974) [Reissue 2003]

Download Now

Jorma Kaukonen - Quah (1974) [Reissue 2003]

Jorma Kaukonen - Quah (1974) [Reissue 2003]
EAC Rip | FLAC: Tracks+Cue+Log | 309 Mb | MP3 CBR 320 kbps | 126 Mb | Scans | Time: 53:56
Genre: Folk Rock, Acoustic | Label: BMG Heritage | Cat.№: 07863 65139 2

"Best known for his work with Jefferson Airplane and Hot Tuna, guitar god Jorma Kaukonen released his first solo album, Quah, in 1974. Quah draws on folk, blues and gospel influences, along with the inimitable vocals of Tom Hobson on several tracks, all tied together by Kaukonen's intricate acoustic guitar work. Now remastered with several previously unreleased bonus tracks and new liner notes by Jefferson Airplane biographer Jeff Tamarkin."



Track Listing

01. Genesis (04:20)
02. I'll Be All Right (03:10)
03. Song For The North Star (02:53)
04. I'll Let You Know Before I Leave (02:18)
05. Flying Clouds (04:07)
06. Another Man Done Gone (02:56)
07. I Am The Light Of This World (03:48)
08. Police Dog Blues (03:45)
09. Blue Prelude (04:06)
10. Sweet Hawaiian Sunshine (02:41)
11. Hamar Promenade (04:42)

Previously unreleased bonus tracks

12. Lord Have Mercy (Bonus track) (03:19)
13. No Mail Today (Bonus track) (04:47)
14. Midnight In Mipitas (Bonus track) (02:14)
15. Barrier (Bonus track) (04:42)

Produced by Jack Casady

Personnel

* Jorma Kaukonen - vocals on all tracks except Tom Hobson tracks, "I'll Let You Know Before I Leave", and "Lord Have Mercy", acoustic guitar on all tracks except "Sweet Hawaiian Sunshine" and "Barrier", 12-string slide guitar on "Another Man Done Gone"
* Tom Hobson - vocals on "Blue Prelude", "Sweet Hawaiian Sunshine", "No Mail Today", and "Barrier", acoustic guitar on "I'll Let You Know Before I Leave", "Blue Prelude", "Sweet Hawaiian Sunshine", "No Mail Today", "Midnight in Milpitas", and "Barrier"

Additional Personnel

* Edward Neff - fiddle on "Flying Clouds"
* Teressa Adams, Melinda Ross - cello on "Genesis", "Song for the North Star", and "Flying Clouds"
* Nancy Ellis, Miriam Dye, Don Ehrlich, Mary Jo Ahlborn - violas on "Genesis", "Song for the North Star", and "Flying Clouds"
* Thomas Heimberg - viola on "Flying Clouds"
* Nathan Rubin, Thomas Halpin, Daniel Kobialka, Carl Pederson, Eva Karasik, Anne Kish - violins on "Genesis", "Song for the North Star", and "Flying Clouds"
* Mischa Myers - violin on "Flying Clouds"
* Arthur Krehbiel - French horn on "Flying Clouds"
* Gene Tortora - dobro on "Sweet Hawaiian Sunshine"

EAC extraction logfile from 3. May 2007, 0:24 for CD
Jorma Kaukonen / Quah

Used drive : PLEXTOR DVD-ROM PX-130A Adapter: 0 ID: 1
Read mode : Secure with NO C2, accurate stream, disable cache
Read offset correction : 738
Overread into Lead-In and Lead-Out : No

Used output format : C:\Programme\FLAC\flac.exe (User Defined Encoder) 128 kBit/s Additional command line options : -V -8 -T "artist=%a" -T "title=%t" -T "album=%g" -T "date=%y" -T "tracknumber=%n" -T "genre=%m" %s

Other options :
Fill up missing offset samples with silence : Yes
Delete leading and trailing silent blocks : No
Installed external ASPI interface

Track 1
Filename K:\Abbey Road\Jorma Kaukonen - Quah\01 - Genesis.wav Pre-gap length 0:00:02.00 Peak level 98.8 %
Track quality 100.0 %
Test CRC 37AF1B60
Copy CRC 37AF1B60
Copy OK

Track 2
Filename K:\Abbey Road\Jorma Kaukonen - Quah\02 - I'll Be All Right.wav Pre-gap length 0:00:01.86 Peak level 98.8 %
Track quality 100.0 %
Test CRC 8DD9B09A
Copy CRC 8DD9B09A
Copy OK

Track 3
Filename K:\Abbey Road\Jorma Kaukonen - Quah\03 - Song for the North Star.wav Pre-gap length 0:00:01.25 Peak level 98.8 %
Track quality 100.0 %
Test CRC 2418B883
Copy CRC 2418B883
Copy OK

Track 4
Filename K:\Abbey Road\Jorma Kaukonen - Quah\04 - I'll Let You Know Before I Leave.wav Pre-gap length 0:00:01.85 Peak level 98.8 %
Track quality 100.0 %
Test CRC FF28542B
Copy CRC FF28542B
Copy OK

Track 5
Filename K:\Abbey Road\Jorma Kaukonen - Quah\05 - Flying Clouds.wav Pre-gap length 0:00:01.02 Peak level 98.8 %
Track quality 100.0 %
Test CRC 687956CF
Copy CRC 687956CF
Copy OK

Track 6
Filename K:\Abbey Road\Jorma Kaukonen - Quah\06 - Another Man Done Gone.wav Pre-gap length 0:00:00.98 Peak level 98.8 %
Track quality 100.0 %
Test CRC FFF6DFAD
Copy CRC FFF6DFAD
Copy OK

Track 7
Filename K:\Abbey Road\Jorma Kaukonen - Quah\07 - I Am the Light of This World.wav Pre-gap length 0:00:02.66 Peak level 98.8 %
Track quality 100.0 %
Test CRC 03F997A1
Copy CRC 03F997A1
Copy OK

Track 8
Filename K:\Abbey Road\Jorma Kaukonen - Quah\08 - Police Dog Blues.wav Pre-gap length 0:00:02.61 Peak level 98.8 %
Track quality 100.0 %
Test CRC 7E8866EE
Copy CRC 7E8866EE
Copy OK

Track 9
Filename K:\Abbey Road\Jorma Kaukonen - Quah\09 - BLue Prelude.wav Peak level 98.8 %
Track quality 100.0 %
Test CRC 76A6C60A
Copy CRC 76A6C60A
Copy OK

Track 10
Filename K:\Abbey Road\Jorma Kaukonen - Quah\10 - Sweet Hawaiian Sunshine.wav Pre-gap length 0:00:01.29 Peak level 91.4 %
Track quality 99.9 %
Test CRC 4D7E0D3F
Copy CRC 4D7E0D3F
Copy OK

Track 11
Filename K:\Abbey Road\Jorma Kaukonen - Quah\11 - Hamar Promenade.wav Pre-gap length 0:00:02.09 Peak level 98.8 %
Track quality 100.0 %
Test CRC 1AE52016
Copy CRC 1AE52016
Copy OK

Track 12
Filename K:\Abbey Road\Jorma Kaukonen - Quah\12 - Lord Have Mercy (bonus).wav Pre-gap length 0:00:05.32 Peak level 85.3 %
Track quality 100.0 %
Test CRC 43271040
Copy CRC 43271040
Copy OK

Track 13
Filename K:\Abbey Road\Jorma Kaukonen - Quah\13 - No Mail Today (bonus).wav Pre-gap length 0:00:02.90 Peak level 98.8 %
Track quality 100.0 %
Test CRC 0FB9B14D
Copy CRC 0FB9B14D
Copy OK

Track 14
Filename K:\Abbey Road\Jorma Kaukonen - Quah\14 - Midnight in Mipitas (bonus).wav Pre-gap length 0:00:02.54 Peak level 93.3 %
Track quality 99.9 %
Test CRC 8F26ABDA
Copy CRC 8F26ABDA
Copy OK

Track 15
Filename K:\Abbey Road\Jorma Kaukonen - Quah\15 - Barrier (bonus).wav Pre-gap length 0:00:02.37 Peak level 98.8 %
Track quality 100.0 %
Test CRC B25248D9
Copy CRC B25248D9
Copy OK

No errors occured

End of status report

Many thanks to the original uploader: anahoret773
Download Links:
(Premium Recommended)


All above links are interchangable. No password

Direct Download

Tags: Kaukonen, Reissue

Jorma Kaukonen - Quah (1974) [Reissue 2003] Download via Hotfile Rapidshare Fileserve Megaupload & FileSonic, Jorma Kaukonen - Quah (1974) [Reissue 2003] free torrent downloads included crack, serial, keygen.


Attention!Information

Members of Guest cannot leave comments.