The Answer - New Horizon (2013)

Download Now

The Answer - New Horizon (2013)

The Answer - New Horizon (2013)
EAC Rip | FLAC (Img) + Cue + Log ~ 375 Mb | MP3 CBR320 ~ 119 Mb
Scans (JPG, 600 dpi) ~ 162 Mb | RAR 5% Recovery
Hard Rock, Blues Rock | Napalm Records #NPR 493 LTD

"New Horizon is the fourth studio album by Northern Ireland rock band The Answer. The album, which was released on 30 September 2013, was produced by Little Angels frontman Toby Jepson and features artwork from the legendary designer Storm Thorgerson, who was working on the cover shortly before his death in April 2013. New Horizon is the band's first album with Napalm Records, with whom they signed the previous year. Blues-influenced hard rock band the Answer first came together in 2000 when guitarist Paul Mahon, then 18 years old and living in Northern Ireland, decided to put together a group with the help of a friend, bassist Micky Waters..."

Official Website | Wiki | Discogs | All Music
***************

The Answer - New Horizon (2013)

Track List:

01. New Horizon [0:03:48.55]
02. Leave With Nothin' [0:03:51.63]
03. Spectacular [0:03:52.45]
04. Speak Now [0:03:38.65]
05. Somebody Else [0:03:46.22]
06. Concrete [0:03:45.51]
07. Call Yourself A Friend [0:04:55.34]
08. Baby Kill Me [0:03:03.42]
09. Burn You Down [0:03:29.73]
10. Scream A Louder Love [0:03:36.10]
11. Road Less Travelled [0:04:44.15]
12. Feel The Fear [0:03:30.43]
13. Real As It Gets [0:03:27.62]

Exact Audio Copy V1.0 beta 3 from 29. August 2011

Отчёт EAC об извлечении, выполненном 15. октября 2013, 20:43

The Answer / New Horizon

Дисковод: ATAPI iHAS122 C Adapter: 3 ID: 1

Режим чтения : Достоверность
Использование точного потока : Да
Отключение кэша аудио : Да
Использование указателей C2 : Нет

Коррекция смещения при чтении : 6
Способность читать области Lead-in и Lead-out : Нет
Заполнение пропущенных сэмплов тишиной : Да
Удаление блоков с тишиной в начале и конце : Нет
При вычислениях CRC использовались нулевые сэмплы : Да
Интерфейс : Встроенный Win32-интерфейс для Win NT/2000

Выходной формат : Пользовательский кодировщик
Выбранный битрейт : 896 kBit/s
Качество : Высокий
Добавление ID3-тега : Да
Утилита сжатия : C:\Program Files\Exact Audio Copy\FLAC\FLAC.EXE
Дополнительные параметры : -6 -V -T "ARTIST=%artist%" -T "TITLE=%title%" -T "ALBUM=%albumtitle%" -T "DATE=%year%" -T "TRACKNUMBER=%tracknr%" -T "GENRE=%genre%" -T "COMMENT=%comment%" -T "BAND=%albuminterpret%" -T "ALBUMARTIST=%albuminterpret%" -T "COMPOSER=%composer%" %haslyrics%--tag-from-file=LYRICS="%lyricsfile%"%haslyrics% -T "DISCNUMBER=%cdnumber%" -T "TOTALDISCS=%totalcds%" -T "TOTALTRACKS=%numtracks%" %hascover%--picture="%coverfile%"%hascover% %source% -o %dest%

TOC извлечённого CD Трек | Старт | Длительность | Начальный сектор | Конечный сектор

1 | 0:00.00 | 3:48.55 | 0 | 17154
2 | 3:48.55 | 3:51.63 | 17155 | 34542
3 | 7:40.43 | 3:52.45 | 34543 | 51987
4 | 11:33.13 | 3:38.65 | 51988 | 68402
5 | 15:12.03 | 3:46.22 | 68403 | 85374
6 | 18:58.25 | 3:45.51 | 85375 | 102300
7 | 22:44.01 | 4:55.34 | 102301 | 124459
8 | 27:39.35 | 3:03.42 | 124460 | 138226
9 | 30:43.02 | 3:29.73 | 138227 | 153974
10 | 34:13.00 | 3:36.10 | 153975 | 170184
11 | 37:49.10 | 4:44.15 | 170185 | 191499
12 | 42:33.25 | 3:30.43 | 191500 | 207292
13 | 46:03.68 | 3:27.62 | 207293 | 222879

Характеристики диапазона извлечения и сообщения об ошибках

Выбранный диапазон Имя файла D:\Delivery by RedHotBlues\The Answer - New Horizon - 2013 - 49'33''\The Answer - New Horizon.wav Пиковый уровень 99.9 %
Скорость извлечения 3.3 X
Качество диапазона 99.9 %
CRC теста 00DF41F3
CRC копии 00DF41F3
Копирование... OK

Ошибок не произошло

Конец отчёта

==== Контрольная сумма отчёта E7EC85D80C28B6AFEABFFFF72B47676362B604C9ACB8AF1566C7D72DD218F29F ====

foobar2000 1.2.6 / Dynamic Range Meter 1.1.1
log date: 2015-06-25 10:18:53

------
Analyzed: The Answer / New Horizon
------

DR Peak RMS Duration Track
------
DR5 -0.01 dB -6.76 dB 3:49 01-New Horizon
DR6 -0.01 dB -6.91 dB 3:52 02-Leave With Nothin'
DR5 -0.01 dB -6.12 dB 3:53 03-Spectacular
DR5 0.00 dB -6.95 dB 3:39 04-Speak Now
DR5 -0.01 dB -6.43 dB 3:46 05-Somebody Else
DR6 -0.01 dB -7.39 dB 3:46 06-Concrete
DR5 -0.01 dB -7.12 dB 4:55 07-Call Yourself A Friend
DR5 -0.01 dB -5.82 dB 3:04 08-Baby Kill Me
DR5 -0.01 dB -6.02 dB 3:30 09-Burn You Down
DR4 -0.01 dB -5.71 dB 3:36 10-Scream A Louder Love
DR6 -0.01 dB -7.84 dB 4:44 11-Road Less Travelled
DR5 -0.01 dB -6.03 dB 3:31 12-Feel The Fear
DR6 -0.01 dB -7.61 dB 3:28 13-Real As It Gets
------

Number of tracks: 13
Official DR value: DR5

Samplerate: 44100 Hz
Channels: 2
Bits per sample: 16
Bitrate: 1009 kbps
Codec: FLAC

[CUETools log; Date: 25.06.2015 10:18:32; Version: 2.1.5]
[CTDB TOCID: AusX4M6ngdbRvtMvExMXuJGzuZI-] found.
Track | CTDB Status
1 | (18/18) Accurately ripped
2 | (18/18) Accurately ripped
3 | (18/18) Accurately ripped
4 | (18/18) Accurately ripped
5 | (18/18) Accurately ripped
6 | (18/18) Accurately ripped
7 | (18/18) Accurately ripped
8 | (18/18) Accurately ripped
9 | (18/18) Accurately ripped
10 | (18/18) Accurately ripped
11 | (18/18) Accurately ripped
12 | (18/18) Accurately ripped
13 | (18/18) Accurately ripped
[AccurateRip ID: 0017ee1d-00ef4585-a80b9b0d] found.
Track [ CRC | V2 ] Status
01 [65e17879|f83f8c35] (00+04/34) Accurately ripped
02 [d12dab24|663cb30f] (00+04/34) Accurately ripped
03 [0306d24d|1324b8b9] (00+04/34) Accurately ripped
04 [e48de82a|bd983099] (00+04/34) Accurately ripped
05 [4e64b45b|c83c0492] (00+04/34) Accurately ripped
06 [c181e037|16bf4003] (00+04/33) Accurately ripped
07 [c630d191|b43e7fd3] (00+04/34) Accurately ripped
08 [728128d6|38f343e1] (00+04/34) Accurately ripped
09 [221c978b|75d0d498] (00+04/34) Accurately ripped
10 [f7b98f7a|c23f980c] (00+04/33) Accurately ripped
11 [54915d79|82cb9f13] (00+04/33) Accurately ripped
12 [84d9efc0|fa3f3ca6] (00+04/33) Accurately ripped
13 [33314a0b|ba0101c6] (00+04/34) Accurately ripped
Offsetted by 6:
01 [d5758ea3] (00/34) No match (V2 was not tested)
02 [d3eabca5] (00/34) No match (V2 was not tested)
03 [6ed24565] (00/34) No match (V2 was not tested)
04 [f5953c1b] (00/34) No match (V2 was not tested)
05 [d5c428ad] (00/34) No match (V2 was not tested)
06 [2c0e3743] (00/33) No match (V2 was not tested)
07 [0d92fba3] (00/34) No match (V2 was not tested)
08 [a85f82b2] (00/34) No match (V2 was not tested)
09 [2d612c47] (00/34) No match (V2 was not tested)
10 [a3c0562c] (00/33) No match (V2 was not tested)
11 [15531fb1] (00/33) No match (V2 was not tested)
12 [28a204be] (00/33) No match (V2 was not tested)
13 [8304add3] (00/34) No match (V2 was not tested)

Track Peak [ CRC32 ] [W/O NULL] [ LOG ]
-- 99,9 [00DF41F3] [2FBB1456] CRC32
01 99,9 35660C9 [6417F401]
02 99,9 [7F63BEA0] C699873
03 99,9 [6135380A] [1B7ECD29]
04 99,9 [CC87B554] [5ECDDFF5]
05 99,9 [53A61D01] [62D65122]
06 99,9 [73D34E62] [497F7445]
07 99,9 6421D40 [EBA7DE02]
08 99,9 3B371AD [F771B846]
09 99,9 [D1DD9D14] [CB38F4EF]
10 99,9 [C04C7206] [DD07FACB]
11 99,9 [7931745A] [85CF8F1C]
12 99,9 [F00D47BC] [E89BAD76]
13 99,9 [7AA1125A] [25AC34F3]

The Answer - New Horizon (2013)


DOWNLOAD LINKS:
Buy Premium To Support Me & Get Resumable Support & Max Speed


Links are Interchangeable - No Password - Single Extraction

Direct Download

Tags: Answer, Horizon

The Answer - New Horizon (2013) Download via Hotfile Rapidshare Fileserve Megaupload & FileSonic, The Answer - New Horizon (2013) free torrent downloads included crack, serial, keygen.


Attention!Information

Members of Guest cannot leave comments.