Michael Kamen - Band of Brothers: Music from the HBO Miniseries (2001)

Download Now

Michael Kamen - Band of Brothers: Music from the HBO Miniseries (2001)

Michael Kamen - Band of Brothers: Music from the HBO Miniseries (2001)
EAC | FLAC | Tracks (Cue&Log) ~ 347 Mb (incl 5%) | Mp3 (CBR320) ~ 172 Mb (incl 5%) | Scans included
Genre: Soundtrack, Score | Label: Play-Tone, Sony | # SK 89719 | Time: 01:09:55

"Michael Kamen is a master at capturing nostalgia, especially when the age in question is the bittersweet "tie a yellow ribbon" landscape of World War II. For the HBO mini-series Band of Brothers, Kamen re-visits much of the same territory he explored with fellow sepia-tone junkie Roger Waters on Pink Floyd's The Wall and The Final Cut. Alternately tragic and uplifting, Band of Brothers is a raw, patriotic, and wistfully elegiac tome of swelling choirs, salvation army brass band, and melodious strings that compliment the series' balanced depiction of the horrors of war and the unpredictable sweetness of humanity."



Tracklist:

01. Main Theme (02:24)
02. Band Of Brothers Suite One (06:31)
03. Band Of Brothers Suite Two (09:13)
04. The Mission Begins (05:49)
05. Swamp (02:08)
06. Spiers' Speech (01:00)
07. Fire On Lake (02:15)
08. Parapluie (02:17)
09. Boy Eats Chocolate (01:16)
10. Bull's Theme (03:19)
11. Winters On Subway (01:54)
12. Headscarf (04:10)
13. Buck In Hospital (01:59)
14. Plaisier D'amour (01:54)
15. Preparing For Patrol (02:29)
16. String Quartett In C-Sharp Minor (Opus 131) (02:10)
17. Discovery Of The Camp (10:58)
18. Nixon's Walk (02:14)
19. Austria (01:59)
20. Band Of Brothers Requiem (feat. Maire Brennan & Zoe Kamen) (03:18)


Exact Audio Copy V1.0 beta 3 from 29. August 2011

EAC extraction logfile from 24. April 2012, 5:07

The London Metropolitan Orchestra / Band of Brothers: Music from the HBO Miniseries

Used drive : TSSTcorpCDDVDW TS-L633C Adapter: 0 ID: 1

Read mode : Secure
Utilize accurate stream : Yes
Defeat audio cache : Yes
Make use of C2 pointers : No

Read offset correction

: 6
Overread into Lead-In and Lead-Out : No
Fill up missing offset samples with silence : Yes
Delete leading and trailing silent blocks : No
Null samples used in CRC calculations : Yes
Used interface
: Native Win32 interface for Win NT & 2000
Gap handling
: Appended to previous track

Used output format : User Defined Encoder
Selected bitrate : 1024 kBit/s
Quality : High
Add ID3 tag : No
Command line compressor : C:\Program Files (x86)\Exact Audio Copy\Flac\flac.exe
Additional command line options : -8 -V -T "ARTIST=%artist%" -T "TITLE=%title%" -T "ALBUM=%albumtitle%" -T "DATE=%year%" -T "TRACKNUMBER=%tracknr%" -T "GENRE=%genre%" -T "PERFORMER=%albuminterpret%" -T "COMPOSER=%composer%" %haslyrics%--tag-from-file=LYRICS="%lyricsfile%"%haslyrics% -T "ALBUMARTIST=%albumartist%" -T "DISCNUMBER=%cdnumber%" -T "TOTALDISCS=%totalcds%" -T "TOTALTRACKS=%numtracks%" -T "COMMENT=%comment%" %source% -o %dest%

TOC of the extracted CD Track | Start | Length | Start sector | End sector
1 | 0:00.00 | 2:24.70 | 0 | 10869 2 | 2:24.70 | 6:31.40 | 10870 | 40234 3 | 8:56.35 | 9:15.55 | 40235 | 81914 4 | 18:12.15 | 5:50.30 | 81915 | 108194 5 | 24:02.45 | 2:08.50 | 108195 | 117844 6 | 26:11.20 | 1:02.15 | 117845 | 122509 7 | 27:13.35 | 2:16.40 | 122510 | 132749 8 | 29:30.00 | 2:17.15 | 132750 | 143039 9 | 31:47.15 | 1:18.52 | 143040 | 148941
10 | 33:05.67 | 3:21.03 | 148942 | 164019
11 | 36:26.70 | 1:54.27 | 164020 | 172596
12 | 38:21.22 | 4:11.40 | 172597 | 191461
13 | 42:32.62 | 2:01.73 | 191462 | 200609
14 | 44:34.60 | 1:56.55 | 200610 | 209364
15 | 46:31.40 | 2:32.00 | 209365 | 220764
16 | 49:03.40 | 2:13.35 | 220765 | 230774
17 | 51:17.00 | 10:59.55 | 230775 | 280254
18 | 62:16.55 | 2:18.17 | 280255 | 290621
19 | 64:34.72 | 2:01.18 | 290622 | 299714
20 | 66:36.15 | 3:18.70 | 299715 | 314634

Track 1 Filename D:\what-cd\The London Metropolitan Orchestra - Band of Brothers- Music from the HBO Miniseries (2001) [FLAC]\01 - Main Theme.wav Pre-gap length 0:00:02.00 Peak level 83.1 %
Extraction speed 2.6 X
Track quality 100.0 %
Test CRC 77BF3C0B
Copy CRC 77BF3C0B
Accurately ripped (confidence 4) [2EEA3DAC] (AR v1)
Copy OK

Track 2 Filename D:\what-cd\The London Metropolitan Orchestra - Band of Brothers- Music from the HBO Miniseries (2001) [FLAC]\02 - Band Of Brothers Suite One.wav Pre-gap length 0:00:00.04 Peak level 92.2 %
Extraction speed 3.4 X
Track quality 100.0 %
Test CRC 9F46FC98
Copy CRC 9F46FC98
Accurately ripped (confidence 3) [CD7EBA65] (AR v1)
Copy OK

Track 3 Filename D:\what-cd\The London Metropolitan Orchestra - Band of Brothers- Music from the HBO Miniseries (2001) [FLAC]\03 - Band Of Brothers Suite Two.wav Peak level 91.5 %
Extraction speed 3.5 X
Track quality 99.9 %
Test CRC FA60B85D
Copy CRC FA60B85D
Accurately ripped (confidence 3) [98C9AD8D] (AR v1)
Copy OK

Track 4 Filename D:\what-cd\The London Metropolitan Orchestra - Band of Brothers- Music from the HBO Miniseries (2001) [FLAC]\04 - The Mission Begins.wav Pre-gap length 0:00:02.44 Peak level 92.2 %
Extraction speed 4.1 X
Track quality 100.0 %
Test CRC C0E7AD44
Copy CRC C0E7AD44
Accurately ripped (confidence 3) [9C1A7834] (AR v1)
Copy OK

Track 5 Filename D:\what-cd\The London Metropolitan Orchestra - Band of Brothers- Music from the HBO Miniseries (2001) [FLAC]\05 - Swamp.wav Pre-gap length 0:00:01.13 Peak level 38.5 %
Extraction speed 3.6 X
Track quality 100.0 %
Test CRC 644A0CF0
Copy CRC 644A0CF0
Accurately ripped (confidence 3) [F40DEE02] (AR v1)
Copy OK

Track 6 Filename D:\what-cd\The London Metropolitan Orchestra - Band of Brothers- Music from the HBO Miniseries (2001) [FLAC]\06 - Spiers' Speech.wav Peak level 29.9 %
Extraction speed 2.9 X
Track quality 100.0 %
Test CRC 0E442A2A
Copy CRC 0E442A2A
Accurately ripped (confidence 3) [DC06925F] (AR v1)
Copy OK

Track 7 Filename D:\what-cd\The London Metropolitan Orchestra - Band of Brothers- Music from the HBO Miniseries (2001) [FLAC]\07 - Fire On Lake.wav Pre-gap length 0:00:02.13 Peak level 51.8 %
Extraction speed 3.8 X
Track quality 100.0 %
Test CRC 81E79A4C
Copy CRC 81E79A4C
Accurately ripped (confidence 3) [FB8E41B9] (AR v1)
Copy OK

Track 8 Filename D:\what-cd\The London Metropolitan Orchestra - Band of Brothers- Music from the HBO Miniseries (2001) [FLAC]\08 - Parapluie.wav Pre-gap length 0:00:00.97 Peak level 84.0 %
Extraction speed 3.9 X
Track quality 100.0 %
Test CRC A535AEE2
Copy CRC A535AEE2
Accurately ripped (confidence 3) [756D3F19] (AR v1)
Copy OK

Track 9 Filename D:\what-cd\The London Metropolitan Orchestra - Band of Brothers- Music from the HBO Miniseries (2001) [FLAC]\09 - Boy Eats Chocolate.wav Pre-gap length 0:00:00.06 Peak level 59.6 %
Extraction speed 2.3 X
Track quality 99.8 %
Test CRC DD54E001
Copy CRC DD54E001
Accurately ripped (confidence 3) [66F4202D] (AR v1)
Copy OK

Track 10 Filename D:\what-cd\The London Metropolitan Orchestra - Band of Brothers- Music from the HBO Miniseries (2001) [FLAC]\10 - Bull's Theme.wav Pre-gap length 0:00:01.80 Peak level 86.7 %
Extraction speed 4.4 X
Track quality 100.0 %
Test CRC 563B5ABD
Copy CRC 563B5ABD
Accurately ripped (confidence 3) [FD64425B] (AR v1)
Copy OK

Track 11 Filename D:\what-cd\The London Metropolitan Orchestra - Band of Brothers- Music from the HBO Miniseries (2001) [FLAC]\11 - Winters On Subway.wav Pre-gap length 0:00:02.04 Peak level 23.8 %
Extraction speed 3.9 X
Track quality 100.0 %
Test CRC 931C42E7
Copy CRC 931C42E7
Accurately ripped (confidence 3) [076B33D6] (AR v1)
Copy OK

Track 12 Filename D:\what-cd\The London Metropolitan Orchestra - Band of Brothers- Music from the HBO Miniseries (2001) [FLAC]\12 - Headscarf.wav Peak level 47.4 %
Extraction speed 4.8 X
Track quality 100.0 %
Test CRC 362AACA0
Copy CRC 362AACA0
Accurately ripped (confidence 3) [9283EB3D] (AR v1)
Copy OK

Track 13 Filename D:\what-cd\The London Metropolitan Orchestra - Band of Brothers- Music from the HBO Miniseries (2001) [FLAC]\13 - Buck In Hospital.wav Pre-gap length 0:00:01.06 Peak level 79.0 %
Extraction speed 4.2 X
Track quality 100.0 %
Test CRC 9DD523CB
Copy CRC 9DD523CB
Accurately ripped (confidence 3) [4F712940] (AR v1)
Copy OK

Track 14 Filename D:\what-cd\The London Metropolitan Orchestra - Band of Brothers- Music from the HBO Miniseries (2001) [FLAC]\14 - Plaisier D'amour.wav Pre-gap length 0:00:02.24 Peak level 44.0 %
Extraction speed 4.2 X
Track quality 100.0 %
Test CRC E3B0BFAA
Copy CRC E3B0BFAA
Accurately ripped (confidence 3) [F7217D74] (AR v1)
Copy OK

Track 15 Filename D:\what-cd\The London Metropolitan Orchestra - Band of Brothers- Music from the HBO Miniseries (2001) [FLAC]\15 - Preparing For Patrol.wav Pre-gap length 0:00:02.06 Peak level 49.0 %
Extraction speed 4.6 X
Track quality 100.0 %
Test CRC BC828587
Copy CRC BC828587
Accurately ripped (confidence 3) [7E20B2C0] (AR v1)
Copy OK

Track 16 Filename D:\what-cd\The London Metropolitan Orchestra - Band of Brothers- Music from the HBO Miniseries (2001) [FLAC]\16 - String Quartett In C-Sharp Minor (Opus 131).wav Pre-gap length 0:00:03.00 Peak level 52.7 %
Extraction speed 3.3 X
Track quality 99.9 %
Test CRC 0948DF4F
Copy CRC 0948DF4F
Accurately ripped (confidence 3) [30C3751A] (AR v1)
Copy OK

Track 17 Filename D:\what-cd\The London Metropolitan Orchestra - Band of Brothers- Music from the HBO Miniseries (2001) [FLAC]\17 - Discovery Of The Camp.wav Pre-gap length 0:00:03.00 Peak level 85.7 %
Extraction speed 5.8 X
Track quality 100.0 %
Test CRC FCC6EAC8
Copy CRC FCC6EAC8
Accurately ripped (confidence 3) [DA938EB4] (AR v1)
Copy OK

Track 18 Filename D:\what-cd\The London Metropolitan Orchestra - Band of Brothers- Music from the HBO Miniseries (2001) [FLAC]\18 - Nixon's Walk.wav Pre-gap length 0:00:01.66 Peak level 82.0 %
Extraction speed 5.0 X
Track quality 100.0 %
Test CRC 6106FD76
Copy CRC 6106FD76
Accurately ripped (confidence 3) [0ACB4CED] (AR v1)
Copy OK

Track 19 Filename D:\what-cd\The London Metropolitan Orchestra - Band of Brothers- Music from the HBO Miniseries (2001) [FLAC]\19 - Austria.wav Pre-gap length 0:00:03.96 Peak level 62.3 %
Extraction speed 4.8 X
Track quality 100.0 %
Test CRC 89B25627
Copy CRC 89B25627
Accurately ripped (confidence 3) [89D88E3B] (AR v1)
Copy OK

Track 20 Filename D:\what-cd\The London Metropolitan Orchestra - Band of Brothers- Music from the HBO Miniseries (2001) [FLAC]\20 - Band Of Brothers Requiem (feat. Maire Brennan & Zoe Kamen).wav Pre-gap length 0:00:02.20 Peak level 89.0 %
Extraction speed 4.4 X
Track quality 99.9 %
Test CRC CA649035
Copy CRC CA649035
Accurately ripped (confidence 3) [683EAD25] (AR v1)
Copy OK

All tracks accurately ripped

No errors occurred

End of status report

==== Log checksum A98A2FA5C544FECCC332D91890A90B90C265F3F2B58409F6DD2C849B46E85980 ====

foobar2000 1.2 / Dynamic Range Meter 1.1.1
log date: 2015-06-25 15:47:04

------
Analyzed: The London Metropolitan Orchestra / Band of Brothers: Music from the HBO Miniseries
------

DR Peak RMS Duration Track
------
DR11 -1.60 dB -17.92 dB 2:25 01-Main Theme
DR8 -0.70 dB -13.89 dB 6:32 02-Band of Brothers Suite One
DR10 -0.76 dB -14.75 dB 9:16 03-Band of Brothers Suite Two
DR8 -0.70 dB -12.75 dB 5:50 04-The Mission Begins
DR11 -8.29 dB -27.24 dB 2:09 05-Swamp
DR11 -10.48 dB -28.65 dB 1:02 06-Spiers' Speech
DR9 -5.70 dB -21.06 dB 2:17 07-Fire on Lake
DR10 -1.51 dB -16.75 dB 2:17 08-Parapluie
DR11 -4.49 dB -23.40 dB 1:19 09-Boy Eats Chocolate
DR11 -1.23 dB -18.42 dB 3:21 10-Bull's Theme
DR12 -12.44 dB -30.03 dB 1:54 11-Winters on Subway
DR12 -6.48 dB -23.28 dB 4:12 12-Headscarf
DR9 -2.04 dB -15.24 dB 2:02 13-Buck in Hospital
DR12 -7.13 dB -26.40 dB 1:57 14-Plaisier D'amour
DR10 -6.19 dB -23.05 dB 2:32 15-Preparing for Patrol
DR13 -5.56 dB -25.89 dB 2:13 16-String Quartett in C-Sharp Minor (Opus 131)
DR14 -1.33 dB -21.86 dB 11:00 17-Discovery of the Camp
DR10 -1.72 dB -16.07 dB 2:18 18-Nixon's Walk
DR11 -4.10 dB -20.38 dB 2:01 19-Austria
DR8 -1.01 dB -13.23 dB 3:19 20-Band of Brothers Requiem (feat. Maire Brennan & Zoe Kamen)
------

Number of tracks: 20
Official DR value: DR11

Samplerate: 44100 Hz
Channels: 2
Bits per sample: 16
Bitrate: 724 kbps
Codec: FLAC

Michael Kamen - Band of Brothers: Music from the HBO Miniseries (2001)

Michael Kamen - Band of Brothers: Music from the HBO Miniseries (2001)

All thanks to original releaser


DOWNLOAD
(Premium Recommended)


All above links are interchangable. No password

Direct Download

Tags: Michael, Brothers, Miniseries

Michael Kamen - Band of Brothers: Music from the HBO Miniseries (2001) Download via Hotfile Rapidshare Fileserve Megaupload & FileSonic, Michael Kamen - Band of Brothers: Music from the HBO Miniseries (2001) free torrent downloads included crack, serial, keygen.


Attention!Information

Members of Guest cannot leave comments.