Al Basile - At Home Next Door (2012) 2CD

Download Now

Al Basile - At Home Next Door (2012) 2CD

Al Basile - At Home Next Door (2012) 2CD
EAC | FLAC | Image (Cue&Log) ~ 902 Mb (incl 5%) | Mp3 (CBR320) ~ 347 Mb (incl 5%) | Scans included
Genre: Blues | Label: Sweetspot Records | # 9222 | Time: 02:03:22

"At Home Next Door is a double CD set: the first CD, At Home With the Blues, looks back over Al Basile's 14 year catalogue with Sweetspot and focuses on his blues songs; the second, Next Door to the Blues, is a brand new collection of songs that use the blues as a foundation but build into other forms, with a focus on a 60s Memphis soul and gospel sound. The common denominator through both discs is Duke Robillard as producer and guitarist, and Al Basile as singer, songwriter, and cornetist, but former Roomful of Blues bandmates abound, along with guests ranging from harmonica aces Jerry Portnoy and Sugar Ray Norcia to jazz great Scott Hamilton. Produced by Duke Robillard, administered by BUG."

"Al Basile occupies a couple of rungs on the ladder here at FAME (here and here) while going from strength to strength as a writer, poet, singer, cornetist, and teacher, but with At Home Next Door, he's outdone himself on a twofer release that just may be twomuch of a twogood thing for most anyone's twodelirious happy head. The blend of new and old here is letter perfect. The guy's always had a blue-eyed soul to him, with a good deal of ebony creeping up from the soles of his feet, but At Home doubles down on the trait. Disc 1 is a superbly remastered anthology hand-picked from the back catalogue, and, dudes and dudettes, the songs were already killer but this buff-up puts the next degree of richness into the entire affair. Sometimes that extra tweak makes all the difference.

Every single track on this 27-cut delectation features Duke Robillard who also produced the affair in between the thousand and one other great dates he's been lately conducting...and when I say 'lately', I mean 'forever'. The guy's gotta be one of the five hardest working bluescats around...and don't ask me who the other four are 'cause I suspect they're illusory. Mark Texeira's likewise a cat to pay close attention to because a good deal of his drumwork is to kill for. Start with the lines in The Streak and work out from there. Texeira's one of those rare skinspounders who turns the percussive set-up into a truly musical instrument whenever he gets the chance. Basile would be out of his mind to let this guy go...and I'm sure he has no such intent.

Then there's Al's cornet, which solos and fits in nicely with the rest of the horn ensemble, but the main light shines on his vocals, which call back the 50s and 60s when soul and pre-Brit-invasion rock and R&B were in their glory days, the era when Percy Sledge, Otis Redding, Johnny Otis, and many other familiars were hard at work. You'll even see where Don Fagen and Walter Becker picked up some of their influences via Basile's echoes, 'cause A Little Too Far exposes the root system, especially in Al 'n Duke's lines (in fact, the more I listen, the more I hear Fagen in Basile's voice). From start to finish, At Home Next Door is a groovin', sometimes funky (Miss Dissatisfied with it's irresistible step 'n stomp beat, among others-and, man, catch Duke's Mutated Skunk Baxter closing solo!), but always solid exposition of newly honed riffs on a steady old standard style undergoing its second renaissance.

Review by Mark S. Tucker, AcousticMusic.com
"




Tracklist:

CD1 - At Home With the Blues:

01. Go Back Home To The Blues (03:43)
02. I Got To Love and Be Loved (03:40)
03. Picked To Click (05:07)
04. Termites In My Basement (05:30)
05. Daddy's Got A Problem (04:43)
06. Just A Heartache (03:45)
07. I Really Miss You (05:37)
08. Not The Wrong Woman (03:52)
09. Bad Intentions (03:38)
10. Annie Get Your Thing On (04:08)
11. Too Slow (07:29)
12. Housekey Blues (04:21)
13. Give It Like You Get It (04:17)
14. 80 Bells (04:55)

CD2 - Next Door to the Blues:

01. Too Much Like Fate (03:24)
02. Keep That Heart (05:13)
03. Stony Ground (03:41)
04. Only Jodie Knows (05:17)
05. It's A Mystery To Me (06:11)
06. She Was Sayin' Giddyup (04:03)
07. It Is What It Is (04:10)
08. A Little Too Far (04:50)
09. Tryin' to Impress the Girl (04:37)
10. Miss Dissatisfied (04:02)
11. My Phone's Got A Mind of Its Own (05:20)
12. The Streak (03:33)
13. The Closer (04:03)


Exact Audio Copy V0.99 prebeta 5 from 4. May 2009

Отчёт EAC об извлечении, выполненном 23. июня 2015, 15:26

Al Basile / At Home

Дисковод: ASUS DRW-24F1ST a Adapter: 0 ID: 0

Режим чтения : Достоверность
Использование точного потока : Да
Отключение кэша аудио : Да
Использование указателей C2 : Нет

Коррекция смещения при чтении : 6
Способность читать области Lead-in и Lead-out : Нет
Заполнение пропущенных сэмплов тишиной : Да
Удаление блоков с тишиной в начале и конце : Нет
При вычислениях CRC использовались нулевые сэмплы : Да
Интерфейс : Встроенный Win32-интерфейс для Win NT/2000

Выходной формат : Пользовательский кодировщик
Выбранный битрейт : 768 kBit/s
Качество : Высокий
Добавление ID3-тэга : Нет
Утилита сжатия : D:\05. Other\01. Programmes\Exact Audio Copy\FLAC\FLAC.EXE
Дополнительные параметры : -6 -V -T "ARTIST=%a" -T "TITLE=%t" -T "ALBUM=%g" -T "DATE=%y" -T "TRACKNUMBER=%n" -T "GENRE=%m" -T "COMMENT=%e" %s -o %d

TOC извлечённого CD Трек | Старт | Длительность | Начальный сектор | Конечный сектор

1 | 0:00.00 | 3:43.74 | 0 | 16798
2 | 3:43.74 | 3:40.35 | 16799 | 33333
3 | 7:24.34 | 5:07.08 | 33334 | 56366
4 | 12:31.42 | 5:30.29 | 56367 | 81145
5 | 18:01.71 | 4:43.20 | 81146 | 102390
6 | 22:45.16 | 3:45.23 | 102391 | 119288
7 | 26:30.39 | 5:37.65 | 119289 | 144628
8 | 32:08.29 | 3:52.52 | 144629 | 162080
9 | 36:01.06 | 3:38.48 | 162081 | 178478
10 | 39:39.54 | 4:08.09 | 178479 | 197087
11 | 43:47.63 | 7:29.03 | 197088 | 230765
12 | 51:16.66 | 4:21.73 | 230766 | 250413
13 | 55:38.64 | 4:17.26 | 250414 | 269714
14 | 59:56.15 | 4:55.72 | 269715 | 291911

Характеристики диапазона извлечения и сообщения об ошибках

Выбранный диапазон Имя файла D:\Al Basile - At Home Next Door (2012)\CD1 - At Home With The Blues\Al Basile - At Home.wav Пиковый уровень 98.3 %
Качество диапазона 100.0 %
CRC теста BA62812C
CRC копии BA62812C
Копирование... OK

Ошибок не произошло


AccurateRip: сводка

Трек 1 точность не определена (достоверность 1) [EA5637F5], AccurateRip вернул [C4874FDA]
Трек 2 точность не определена (достоверность 1) [90C07CCE], AccurateRip вернул [4C98085E]
Трек 3 точность не определена (достоверность 1) [0E368E13], AccurateRip вернул 1370EBE
Трек 4 точность не определена (достоверность 1) [189B6F83], AccurateRip вернул [C31FB5B8]
Трек 5 точность не определена (достоверность 1) [129846BB], AccurateRip вернул [CCB82F14]
Трек 6 точность не определена (достоверность 1) [E44FEFB0], AccurateRip вернул [DBD06C79]
Трек 7 точность не определена (достоверность 1) [AC111FFC], AccurateRip вернул [3BFFB4AC]
Трек 8 точность не определена (достоверность 1) [853AEE23], AccurateRip вернул 28597C7
Трек 9 точность не определена (достоверность 1) [ACCA5BB4], AccurateRip вернул [98C6A179]
Трек 10 точность не определена (достоверность 1) [0F693B66], AccurateRip вернул [66803ACF]
Трек 11 точность не определена (достоверность 1) [FE7ADABC], AccurateRip вернул [79594A93]
Трек 12 точность не определена (достоверность 1) [05B48000], AccurateRip вернул [545F71E7]
Трек 13 точность не определена (достоверность 1) [9EF2E5BE], AccurateRip вернул [6C8A8318]
Трек 14 точность не определена (достоверность 1) [FB77B352], AccurateRip вернул [9EDF49B9]

Ни один трек не прошёл проверки на точность
В вашей базе может быть иной вариант штамповки диска

Конец отчёта

foobar2000 1.2 / Dynamic Range Meter 1.1.1
log date: 2015-06-24 20:02:17

------
Analyzed: Al Basile / At Home
------

DR Peak RMS Duration Track
------
DR7 -0.20 dB -8.36 dB 3:44 01-Go Back Home To The Blues
DR8 -0.20 dB -9.16 dB 3:40 02-I Got To Love and Be Loved
DR8 -0.39 dB -9.68 dB 5:07 03-Picked To Click
DR7 -0.39 dB -9.20 dB 5:30 04-Termites In My Basement
DR7 -0.39 dB -8.31 dB 4:43 05-Daddy's Got A Problem
DR8 -0.20 dB -9.42 dB 3:45 06-Just A Heartache
DR11 -0.37 dB -13.75 dB 5:38 07-I Really Miss You
DR10 -0.39 dB -11.25 dB 3:53 08-Not The Wrong Woman
DR10 -0.29 dB -11.57 dB 3:39 09-Bad Intentions
DR9 -0.20 dB -10.15 dB 4:08 10-Annie Get Your Thing On
DR8 -0.89 dB -10.78 dB 7:29 11-Too Slow
DR7 -1.00 dB -9.16 dB 4:22 12-Housekey Blues
DR9 -0.20 dB -10.04 dB 4:17 13-Give It Like You Get It
DR10 -0.15 dB -13.42 dB 4:56 14-80 Bells
------

Number of tracks: 14
Official DR value: DR8

Samplerate: 44100 Hz
Channels: 2
Bits per sample: 16
Bitrate: 913 kbps
Codec: FLAC

Exact Audio Copy V0.99 prebeta 5 from 4. May 2009

Отчёт EAC об извлечении, выполненном 23. июня 2015, 16:06

Al Basile / Next Door

Дисковод: ASUS DRW-24F1ST a Adapter: 0 ID: 0

Режим чтения : Достоверность
Использование точного потока : Да
Отключение кэша аудио : Да
Использование указателей C2 : Нет

Коррекция смещения при чтении : 6
Способность читать области Lead-in и Lead-out : Нет
Заполнение пропущенных сэмплов тишиной : Да
Удаление блоков с тишиной в начале и конце : Нет
При вычислениях CRC использовались нулевые сэмплы : Да
Интерфейс : Встроенный Win32-интерфейс для Win NT/2000

Выходной формат : Пользовательский кодировщик
Выбранный битрейт : 768 kBit/s
Качество : Высокий
Добавление ID3-тэга : Нет
Утилита сжатия : D:\05. Other\01. Programmes\Exact Audio Copy\FLAC\FLAC.EXE
Дополнительные параметры : -6 -V -T "ARTIST=%a" -T "TITLE=%t" -T "ALBUM=%g" -T "DATE=%y" -T "TRACKNUMBER=%n" -T "GENRE=%m" -T "COMMENT=%e" %s -o %d

TOC извлечённого CD Трек | Старт | Длительность | Начальный сектор | Конечный сектор

1 | 0:00.00 | 3:24.67 | 0 | 15366
2 | 3:24.67 | 5:13.14 | 15367 | 38855
3 | 8:38.06 | 3:41.10 | 38856 | 55440
4 | 12:19.16 | 5:17.58 | 55441 | 79273
5 | 17:36.74 | 6:11.61 | 79274 | 107159
6 | 23:48.60 | 4:03.32 | 107160 | 125416
7 | 27:52.17 | 4:10.21 | 125417 | 144187
8 | 32:02.38 | 4:50.25 | 144188 | 165962
9 | 36:52.63 | 4:37.24 | 165963 | 186761
10 | 41:30.12 | 4:02.66 | 186762 | 204977
11 | 45:33.03 | 5:20.36 | 204978 | 229013
12 | 50:53.39 | 3:33.11 | 229014 | 244999
13 | 54:26.50 | 4:03.30 | 245000 | 263254

Характеристики диапазона извлечения и сообщения об ошибках

Выбранный диапазон Имя файла D:\Al Basile - At Home Next Door (2012)\CD2 - Next Door to the Blues\Al Basile - Next Door.wav Пиковый уровень 98.8 %
Качество диапазона 100.0 %
CRC теста 5EBCFD3B
CRC копии 5EBCFD3B
Копирование... OK

Ошибок не произошло


AccurateRip: сводка

Трек 1 точность не определена (достоверность 2) [1A5AB51D], AccurateRip вернул [6CDA1A52]
Трек 2 точность не определена (достоверность 2) [012FE004], AccurateRip вернул [0007A740]
Трек 3 точность не определена (достоверность 2) [F6F2BFA9], AccurateRip вернул [9DD1D218]
Трек 4 точность не определена (достоверность 2) [1C839FAE], AccurateRip вернул [FDB4E090]
Трек 5 точность не определена (достоверность 2) [8E1FD301], AccurateRip вернул [20332958]
Трек 6 точность не определена (достоверность 2) [2EF9217B], AccurateRip вернул [A6EEA980]
Трек 7 точность не определена (достоверность 2) [3DA0B9F9], AccurateRip вернул [0E2AAD2E]
Трек 8 точность не определена (достоверность 2) [1C177A40], AccurateRip вернул [484CFC43]
Трек 9 точность не определена (достоверность 2) [A8C9255E], AccurateRip вернул [718D0F1C]
Трек 10 точность не определена (достоверность 2) [43C896D0], AccurateRip вернул 4AEA9A9
Трек 11 точность не определена (достоверность 2) [7A621B24], AccurateRip вернул [AEAFD70D]
Трек 12 точность не определена (достоверность 2) [61B77C08], AccurateRip вернул [AF4C047A]
Трек 13 точность не определена (достоверность 2) [62010268], AccurateRip вернул [864ADD87]

Ни один трек не прошёл проверки на точность
В вашей базе может быть иной вариант штамповки диска

Конец отчёта

foobar2000 1.2 / Dynamic Range Meter 1.1.1
log date: 2015-06-24 20:02:34

------
Analyzed: Al Basile / Next Door
------

DR Peak RMS Duration Track
------
DR8 -0.20 dB -9.32 dB 3:25 01-Too Much Like Fate
DR8 -0.10 dB -8.81 dB 5:13 02-Keep That Heart
DR9 -0.10 dB -10.69 dB 3:41 03-Stony Ground
DR8 -0.10 dB -9.46 dB 5:18 04-Only Jodie Knows
DR10 -0.10 dB -11.71 dB 6:12 05-It's A Mystery To Me
DR8 -0.20 dB -9.28 dB 4:03 06-She Was Sayin' Giddyup
DR8 -0.10 dB -9.66 dB 4:10 07-It Is What It Is
DR9 -0.10 dB -10.15 dB 4:50 08-A Little Too Far
DR9 -0.10 dB -10.27 dB 4:37 09-Tryin' to Impress the Girl
DR8 -0.20 dB -9.41 dB 4:03 10-Miss Dissatisfied
DR8 -0.20 dB -9.17 dB 5:20 11-My Phone's Got A Mind of Its Own
DR9 -0.20 dB -10.41 dB 3:33 12-The Streak
DR8 -0.20 dB -9.27 dB 4:03 13-The Closer
------

Number of tracks: 13
Official DR value: DR8

Samplerate: 44100 Hz
Channels: 2
Bits per sample: 16
Bitrate: 928 kbps
Codec: FLAC

Al Basile - At Home Next Door (2012) 2CD

Al Basile - At Home Next Door (2012) 2CD

All thanks to original releaser - lukya




Download Links:
(Premium Recommended)


All above links are interchangable. No password

Direct Download

Tags: Basile

Al Basile - At Home Next Door (2012) 2CD Download via Hotfile Rapidshare Fileserve Megaupload & FileSonic, Al Basile - At Home Next Door (2012) 2CD free torrent downloads included crack, serial, keygen.


Attention!Information

Members of Guest cannot leave comments.