Charles Chaplin - The Film Music of Charles Chaplin (1996)

Download Now

Charles Chaplin - The Film Music of Charles Chaplin (1996)

Charles Chaplin - The Film Music of Charles Chaplin (1996)
Deutsches Symphonie-Orchester Berlin, conducted by Carl Davis

EAC | FLAC | Tracks (Cue&Log) ~ 390 Mb (incl 5%) | Mp3 (CBR320) ~ 221 Mb (incl 5%) | Scans included
Genre: Soundtrack, Score | Label: BMG | # 09026 68271 2 | Time: 01:18:09

"This CD contains selected themes from five of Chaplins brilliant films. The Kid (1921), The Gold Rush (1925), The Circus (1928), City Lights (1931) and Modern Times (1936). If you love the music from these films then you will love this album. Carl Davis has been very sensitive when rerecording the original scores. The music sounds amazing and he has remained true to Chaplins own styles and tempo's. The thing that will strike you more than anything is how amazing these scores really are in Stereo! They really do sound very good indeed. It also fully demonstrates just how good a composer Chaplin really was, and his talent for marrying music to film. As music it is beautiful from the harshness of "Gold Rush" to the haunting "Modern Times" and not forgetting the swinging "City Lights". Magical stuff! 5 out of 5, 10 out of 10 etc... But if you are planning on listening to this 80 minute album from beginning to end, you'd better make sure you have some Chaplin films close to hand because you WILL want to watch them all again. Nostalgia at its very best."

"A sort of "Greatest Hits" from some of Chaplin's most famous films -- and that's saying something. For those who only know Chaplin as a brilliant actor and director, it may come as a surprise that he was also one heck of a tunesmith (his most famous being the lovely and hummable tune "Smile" from his film MODERN TIMES.) And these new recordings -- using Chaplin's original scores -- preserve the charm of Chaplin's genius while still giving us clean, crisp sound.

This is more than just the incidental music that sometimes lurks around on scores. The "Garrent Waltz" and "Blue Eyes" from THE KID are fully-realized songs that set a definite mood. "Kidnap," also from THE KID, frames one of film's most memorable and heartwrenching scenes, when the Kid is taken from The Tramp -- and the music swoops and swells with all the same agony and heartache, climaxing with soft violins and flutes crying through a theme that eventually became one of Chaplin's signature tunes. Good stuff.

On a lighter note, the CD also contains the famous "Dance of the Rolls" from THE GOLDRUSH and "The Circus March" from THE CIRCUS, one of Chaplin's most laugh-out-loud films.

It is in his music for CITY LIGHTS and MODERN TIMES, though, where Chaplin the musician really shines. The drunken vignettes of the four "Nightclub" tracks make for great listening, but it's the "Boxing Ring" music that you'll end up cranking through the stereo speakers, with its blaring trumpets and up-and-down brass line (and in these new recordings, you can even hear the frantic timpani swooshing juuuuust behind it all).

The music of MODERN TIMES bring the album to an appropriate close, with the refrain from "Smile" fading out as the final fanfare swells -- fittingly enough, it was this music that played as The Tramp (with the girl finally on his arm) walked off into the sunset (or sunrise, in this case) in the final scene of what would be his last truly "silent" film.

As an import, it costs a little more. But if you're a Chaplin aficianado -- or even just a collector of film scores -- this belongs in your collection.

Review by Brian Jay Jones, Amazon.com
"




Tracklist:

01. The Kid (1921) - Opening Music (02:41)
02. The Kid (1921) - Garret Walz (01:29)
03. The Kid (1921) - Blue Eyes (01:51)
04. The Kid (1921) - Kidnap (03:39)
05. The Kid (1921) - Doss House (04:28)

06. The Gold Rush (1925) - Overture And Storm (02:41)
07. The Gold Rush (1925) - Thanksgiving Dinner (02:59)
08. The Gold Rush (1925) - Georgia (03:53)
09. The Gold Rush (1925) - Dance Of The Rolls (01:25)
10. The Gold Rush (1925) - Rejected (02:05)
11. The Gold Rush (1925) - Discovery (02:16)
12. The Gold Rush (1925) - Chance Meeting And Finale (03:10)

13. The Circus (1928) - The Cicrcus March (01:36)
14. The Circus (1928) - Breakfast And A Hungry Girl (03:40)
15. The Circus (1928) - The Girl (01:36)
16. The Circus (1928) - Flirtation Walz (03:29)
17. The Circus (1928) - The Tightrope Walker (02:40)

18. City Lights (1931) - Fanfare (01:28)
19. City Lights (1931) - The Millionaire (02:17)
20. City Lights (1931) - The Nightclub 1 (00:40)
21. City Lights (1931) - The Nightclub 2 (00:40)
22. City Lights (1931) - The Nightclub 3 (01:02)
23. City Lights (1931) - The Nightclub 4 (01:32)
24. City Lights (1931) - The Flowerseller (04:11)
25. City Lights (1931) - The Boxing Ring (01:28)
26. City Lights (1931) - Finale (01:39)

27. Modern Times (1936) - Main Title (01:12)
28. Modern Times (1936) - Factory Mahines (03:49)
29. Modern Times (1936) - The Gamin (01:07)
30. Modern Times (1936) - Cafeteria And Cigar Shop (02:06)
31. Modern Times (1936) - Dream House (Smile) (01:41)
32. Modern Times (1936) - Department Store (Roller Skating) (01:20)
33. Modern Times (1936) - Lunchtime (02:28)
34. Modern Times (1936) - Into The Sunset (Smile) (03:19)


Exact Audio Copy V1.0 beta 1 from 15. November 2010

EAC extraction logfile from 13. August 2013, 21:42

Deutsches Symphonie-Orchester Berlin, Carl Davis / The Film Music Of Charles Chaplin

Used drive : Optiarc DVD RW AD-7200A Adapter: 0 ID: 0

Read mode : Secure
Utilize accurate stream : Yes
Defeat audio cache : Yes
Make use of C2 pointers : No

Read offset correction

: 48
Overread into Lead-In and Lead-Out : No
Fill up missing offset samples with silence : Yes
Delete leading and trailing silent blocks : No
Null samples used in CRC calculations : Yes
Used interface
: Native Win32 interface for Win NT & 2000
Gap handling
: Appended to previous track

Used output format : User Defined Encoder
Selected bitrate : 768 kBit/s
Quality : High
Add ID3 tag : No
Command line compressor : C:\Program Files\Exact Audio Copy\Flac\flac.exe
Additional command line options : -8 -V -T "ARTIST=%a" -T "TITLE=%t" -T "ALBUM=%g" -T "DATE=%y" -T "TRACKNUMBER=%n" -T "TOTALTRACKS=%x" -T "GENRE=%m" -T "ALBUMARTIST=%v" -T "ALBUM ARTIST=%v" -T "COMMENT=EAC Secure Mode, Test & Copy, AccurateRip, FLAC -8" %s

TOC of the extracted CD Track | Start | Length | Start sector | End sector
--1 | 0:00.00 | 2:41.52 | 0 | 12126 2 | 2:41.52 | 1:29.48 | 12127 | 18849 3 | 4:11.25 | 1:51.10 | 18850 | 27184 4 | 6:02.35 | 3:39.20 | 27185 | 43629 5 | 9:41.55 | 4:31.12 | 43630 | 63966 6 | 14:12.67 | 2:41.08 | 63967 | 76049 7 | 16:54.00 | 2:59.02 | 76050 | 89476 8 | 19:53.02 | 3:53.73 | 89477 | 107024 9 | 23:47.00 | 1:25.02 | 107025 | 113401
10 | 25:12.02 | 2:05.08 | 113402 | 122784
11 | 27:17.10 | 2:16.65 | 122785 | 133049
12 | 29:34.00 | 3:14.65 | 133050 | 147664
13 | 32:48.65 | 1:36.40 | 147665 | 154904
14 | 34:25.30 | 3:40.65 | 154905 | 171469
15 | 38:06.20 | 1:36.35 | 171470 | 178704
16 | 39:42.55 | 3:29.35 | 178705 | 194414
17 | 43:12.15 | 2:44.45 | 194415 | 206759
18 | 45:56.60 | 1:28.30 | 206760 | 213389
19 | 47:25.15 | 2:17.65 | 213390 | 223729
20 | 49:43.05 | 0:40.57 | 223730 | 226786
21 | 50:23.62 | 0:40.20 | 226787 | 229806
22 | 51:04.07 | 1:02.55 | 229807 | 234511
23 | 52:06.62 | 1:32.25 | 234512 | 241436
24 | 53:39.12 | 4:11.18 | 241437 | 260279
25 | 57:50.30 | 1:28.50 | 260280 | 266929
26 | 59:19.05 | 1:42.55 | 266930 | 274634
27 | 61:01.60 | 1:12.25 | 274635 | 280059
28 | 62:14.10 | 3:49.07 | 280060 | 297241
29 | 66:03.17 | 1:07.63 | 297242 | 302329
30 | 67:11.05 | 2:06.62 | 302330 | 311841
31 | 69:17.67 | 1:41.45 | 311842 | 319461
32 | 70:59.37 | 1:20.65 | 319462 | 325526
33 | 72:20.27 | 2:28.40 | 325527 | 336666
34 | 74:48.67 | 3:19.55 | 336667 | 351646

Track 1 Filename D:\Charlie Chaplin - The Film Music Of Charles Chaplin (1996) [FLAC]\01 - The Kid (1921) - Opening Music.wav Pre-gap length 0:00:02.00 Peak level 71.7 %
Extraction speed 1.9 X
Track quality 99.9 %
Test CRC E6A2C986
Copy CRC E6A2C986
Accurately ripped (confidence 4) [1317FB71]
Copy OK

Track 2 Filename D:\Charlie Chaplin - The Film Music Of Charles Chaplin (1996) [FLAC]\02 - The Kid (1921) - Garret Walz.wav Peak level 75.7 %
Extraction speed 1.6 X
Track quality 99.8 %
Test CRC 17A6CE4A
Copy CRC 17A6CE4A
Accurately ripped (confidence 4) [4DFF4DB5]
Copy OK

Track 3 Filename D:\Charlie Chaplin - The Film Music Of Charles Chaplin (1996) [FLAC]\03 - The Kid (1921) - Blue Eyes.wav Peak level 51.0 %
Extraction speed 2.3 X
Track quality 100.0 %
Test CRC 55929A8D
Copy CRC 55929A8D
Accurately ripped (confidence 4) [A16BB41D]
Copy OK

Track 4 Filename D:\Charlie Chaplin - The Film Music Of Charles Chaplin (1996) [FLAC]\04 - The Kid (1921) - Kidnap.wav Peak level 84.9 %
Extraction speed 2.8 X
Track quality 100.0 %
Test CRC F647AB22
Copy CRC F647AB22
Accurately ripped (confidence 4) [C7F18F32]
Copy OK

Track 5 Filename D:\Charlie Chaplin - The Film Music Of Charles Chaplin (1996) [FLAC]\05 - The Kid (1921) - Doss House.wav Peak level 32.9 %
Extraction speed 3.1 X
Track quality 100.0 %
Test CRC 53E93F90
Copy CRC 53E93F90
Accurately ripped (confidence 4) [AE82F3C8]
Copy OK

Track 6 Filename D:\Charlie Chaplin - The Film Music Of Charles Chaplin (1996) [FLAC]\06 - The Gold Rush (1925) - Overture And Storm.wav Pre-gap length 0:00:03.00 Peak level 99.9 %
Extraction speed 3.0 X
Track quality 100.0 %
Test CRC 6F64CBB0
Copy CRC 6F64CBB0
Accurately ripped (confidence 4) [62444CD2]
Copy OK

Track 7 Filename D:\Charlie Chaplin - The Film Music Of Charles Chaplin (1996) [FLAC]\07 - The Gold Rush (1925) - Thanksgiving Dinner.wav Peak level 33.1 %
Extraction speed 3.2 X
Track quality 100.0 %
Test CRC AEC17A98
Copy CRC AEC17A98
Accurately ripped (confidence 4) [A17F6504]
Copy OK

Track 8 Filename D:\Charlie Chaplin - The Film Music Of Charles Chaplin (1996) [FLAC]\08 - The Gold Rush (1925) - Georgia.wav Peak level 42.3 %
Extraction speed 3.5 X
Track quality 100.0 %
Test CRC 06689701
Copy CRC 06689701
Accurately ripped (confidence 4) 085A84F
Copy OK

Track 9 Filename D:\Charlie Chaplin - The Film Music Of Charles Chaplin (1996) [FLAC]\09 - The Gold Rush (1925) - Dance Of The Rolls.wav Peak level 37.1 %
Extraction speed 2.8 X
Track quality 100.0 %
Test CRC 0FAD5F2B
Copy CRC 0FAD5F2B
Accurately ripped (confidence 4) [C92DE952]
Copy OK

Track 10 Filename D:\Charlie Chaplin - The Film Music Of Charles Chaplin (1996) [FLAC]\10 - The Gold Rush (1925) - Rejected.wav Peak level 35.4 %
Extraction speed 3.3 X
Track quality 100.0 %
Test CRC 1787148C
Copy CRC 1787148C
Accurately ripped (confidence 4) [DA73F4EE]
Copy OK

Track 11 Filename D:\Charlie Chaplin - The Film Music Of Charles Chaplin (1996) [FLAC]\11 - The Gold Rush (1925) - Discovery.wav Peak level 100.0 %
Extraction speed 3.5 X
Track quality 100.0 %
Test CRC D70743DB
Copy CRC D70743DB
Accurately ripped (confidence 4) [3CBC40B9]
Copy OK

Track 12 Filename D:\Charlie Chaplin - The Film Music Of Charles Chaplin (1996) [FLAC]\12 - The Gold Rush (1925) - Chance Meeting And Finale.wav Peak level 48.0 %
Extraction speed 3.8 X
Track quality 100.0 %
Test CRC 526C8D53
Copy CRC 526C8D53
Accurately ripped (confidence 4) [3FD1F4CD]
Copy OK

Track 13 Filename D:\Charlie Chaplin - The Film Music Of Charles Chaplin (1996) [FLAC]\13 - The Circus (1928) - The Cicrcus March.wav Pre-gap length 0:00:04.00 Peak level 73.0 %
Extraction speed 3.3 X
Track quality 100.0 %
Test CRC C848811A
Copy CRC C848811A
Accurately ripped (confidence 4) [AC74052C]
Copy OK

Track 14 Filename D:\Charlie Chaplin - The Film Music Of Charles Chaplin (1996) [FLAC]\14 - The Circus (1928) - Breakfast And A Hungry Girl.wav Peak level 24.9 %
Extraction speed 4.1 X
Track quality 100.0 %
Test CRC 55593B9F
Copy CRC 55593B9F
Accurately ripped (confidence 4) [4C79ECA8]
Copy OK

Track 15 Filename D:\Charlie Chaplin - The Film Music Of Charles Chaplin (1996) [FLAC]\15 - The Circus (1928) - The Girl.wav Peak level 45.3 %
Extraction speed 3.5 X
Track quality 100.0 %
Test CRC 87588685
Copy CRC 87588685
Accurately ripped (confidence 4) [EEB22645]
Copy OK

Track 16 Filename D:\Charlie Chaplin - The Film Music Of Charles Chaplin (1996) [FLAC]\16 - The Circus (1928) - Flirtation Walz.wav Peak level 35.8 %
Extraction speed 4.2 X
Track quality 100.0 %
Test CRC E33EF5A3
Copy CRC E33EF5A3
Accurately ripped (confidence 4) [D9607EFB]
Copy OK

Track 17 Filename D:\Charlie Chaplin - The Film Music Of Charles Chaplin (1996) [FLAC]\17 - The Circus (1928) - The Tightrope Walker.wav Peak level 70.3 %
Extraction speed 4.1 X
Track quality 100.0 %
Test CRC 88A438FE
Copy CRC 88A438FE
Accurately ripped (confidence 4) [6B3A06F7]
Copy OK

Track 18 Filename D:\Charlie Chaplin - The Film Music Of Charles Chaplin (1996) [FLAC]\18 - City Lights (1931) - Fanfare.wav Pre-gap length 0:00:03.50 Peak level 82.2 %
Extraction speed 3.7 X
Track quality 100.0 %
Test CRC 1285818D
Copy CRC 1285818D
Accurately ripped (confidence 4) [96D76E60]
Copy OK

Track 19 Filename D:\Charlie Chaplin - The Film Music Of Charles Chaplin (1996) [FLAC]\19 - City Lights (1931) - The Millionaire.wav Peak level 45.2 %
Extraction speed 4.2 X
Track quality 100.0 %
Test CRC 274B4EC2
Copy CRC 274B4EC2
Accurately ripped (confidence 4) [9BB78923]
Copy OK

Track 20 Filename D:\Charlie Chaplin - The Film Music Of Charles Chaplin (1996) [FLAC]\20 - City Lights (1931) - The Nightclub 1.wav Peak level 77.2 %
Extraction speed 2.7 X
Track quality 100.0 %
Test CRC 57F04E35
Copy CRC 57F04E35
Accurately ripped (confidence 4) [9D3AA7D5]
Copy OK

Track 21 Filename D:\Charlie Chaplin - The Film Music Of Charles Chaplin (1996) [FLAC]\21 - City Lights (1931) - The Nightclub 2.wav Peak level 46.3 %
Extraction speed 2.8 X
Track quality 100.0 %
Test CRC 3CD3B6BE
Copy CRC 3CD3B6BE
Accurately ripped (confidence 4) C161BF4
Copy OK

Track 22 Filename D:\Charlie Chaplin - The Film Music Of Charles Chaplin (1996) [FLAC]\22 - City Lights (1931) - The Nightclub 3.wav Pre-gap length 0:00:00.01 Peak level 50.0 %
Extraction speed 3.3 X
Track quality 100.0 %
Test CRC AF25EC1F
Copy CRC AF25EC1F
Accurately ripped (confidence 4) [18ACDA9C]
Copy OK

Track 23 Filename D:\Charlie Chaplin - The Film Music Of Charles Chaplin (1996) [FLAC]\23 - City Lights (1931) - The Nightclub 4.wav Peak level 58.6 %
Extraction speed 3.8 X
Track quality 100.0 %
Test CRC F600D830
Copy CRC F600D830
Accurately ripped (confidence 4) [3A9F8D08]
Copy OK

Track 24 Filename D:\Charlie Chaplin - The Film Music Of Charles Chaplin (1996) [FLAC]\24 - City Lights (1931) - The Flowerseller.wav Peak level 47.4 %
Extraction speed 4.9 X
Track quality 100.0 %
Test CRC E34F8266
Copy CRC E34F8266
Accurately ripped (confidence 4) [CD9354DD]
Copy OK

Track 25 Filename D:\Charlie Chaplin - The Film Music Of Charles Chaplin (1996) [FLAC]\25 - City Lights (1931) - The Boxing Ring.wav Peak level 79.4 %
Extraction speed 3.0 X
Track quality 99.8 %
Test CRC 2332581F
Copy CRC 2332581F
Accurately ripped (confidence 4) [62C837B5]
Copy OK

Track 26 Filename D:\Charlie Chaplin - The Film Music Of Charles Chaplin (1996) [FLAC]\26 - City Lights (1931) - Finale.wav Peak level 89.3 %
Extraction speed 4.2 X
Track quality 100.0 %
Test CRC 05EB607C
Copy CRC 05EB607C
Accurately ripped (confidence 4) [F1097D4C]
Copy OK

Track 27 Filename D:\Charlie Chaplin - The Film Music Of Charles Chaplin (1996) [FLAC]\27 - Modern Times (1936) - Main Title.wav Pre-gap length 0:00:03.14 Peak level 90.2 %
Extraction speed 3.7 X
Track quality 100.0 %
Test CRC 0ADEC4B2
Copy CRC 0ADEC4B2
Accurately ripped (confidence 4) [9170F9A2]
Copy OK

Track 28 Filename D:\Charlie Chaplin - The Film Music Of Charles Chaplin (1996) [FLAC]\28 - Modern Times (1936) - Factory Mahines.wav Peak level 77.0 %
Extraction speed 5.1 X
Track quality 100.0 %
Test CRC 987B34C8
Copy CRC 987B34C8
Accurately ripped (confidence 4) [A66AA871]
Copy OK

Track 29 Filename D:\Charlie Chaplin - The Film Music Of Charles Chaplin (1996) [FLAC]\29 - Modern Times (1936) - The Gamin.wav Peak level 34.6 %
Extraction speed 3.8 X
Track quality 100.0 %
Test CRC 7B39045D
Copy CRC 7B39045D
Accurately ripped (confidence 4) [814339C0]
Copy OK

Track 30 Filename D:\Charlie Chaplin - The Film Music Of Charles Chaplin (1996) [FLAC]\30 - Modern Times (1936) - Cafeteria And Cigar Shop.wav Peak level 47.5 %
Extraction speed 3.7 X
Track quality 99.9 %
Test CRC ED2BB985
Copy CRC ED2BB985
Accurately ripped (confidence 4) 91C44CD
Copy OK

Track 31 Filename D:\Charlie Chaplin - The Film Music Of Charles Chaplin (1996) [FLAC]\31 - Modern Times (1936) - Dream House (Smile).wav Peak level 13.6 %
Extraction speed 3.5 X
Track quality 99.8 %
Test CRC 96EF998D
Copy CRC 96EF998D
Accurately ripped (confidence 4) [36A770DE]
Copy OK

Track 32 Filename D:\Charlie Chaplin - The Film Music Of Charles Chaplin (1996) [FLAC]\32 - Modern Times (1936) - Department Store (Roller Skating).wav Peak level 37.7 %
Extraction speed 4.2 X
Track quality 100.0 %
Test CRC 45BC1DE1
Copy CRC 45BC1DE1
Accurately ripped (confidence 4) 8C585E2
Copy OK

Track 33 Filename D:\Charlie Chaplin - The Film Music Of Charles Chaplin (1996) [FLAC]\33 - Modern Times (1936) - Lunchtime.wav Peak level 25.7 %
Extraction speed 5.0 X
Track quality 100.0 %
Test CRC 6E7A0F3A
Copy CRC 6E7A0F3A
Accurately ripped (confidence 4) [531ACD46]
Copy OK

Track 34 Filename D:\Charlie Chaplin - The Film Music Of Charles Chaplin (1996) [FLAC]\34 - Modern Times (1936) - Into The Sunset (Smile).wav Peak level 46.2 %
Extraction speed 5.3 X
Track quality 100.0 %
Test CRC AE431791
Copy CRC AE431791
Accurately ripped (confidence 3) [D9A95546]
Copy OK

All tracks accurately ripped

No errors occurred

End of status report

==== Log checksum 1AF8504857375E87AF489EEA58DF0C94831E651BFFBC20C8864E4FB4E8791A96 ====

foobar2000 1.2 / Dynamic Range Meter 1.1.1
log date: 2015-06-26 20:56:20

Analyzed: Deutsches Symphonie-Orchester Berlin, Carl Davis / The Film Music Of Charles Chaplin

DR Peak RMS Duration Track

DR12 -2.89 dB -19.15 dB 2:42 01-The Kid (1921) - Opening Music
DR11 -2.41 dB -17.91 dB 1:30 02-The Kid (1921) - Garret Walz
DR11 -5.84 dB -19.56 dB 1:51 03-The Kid (1921) - Blue Eyes
DR12 -1.42 dB -18.53 dB 3:39 04-The Kid (1921) - Kidnap
DR13 -9.64 dB -27.16 dB 4:31 05-The Kid (1921) - Doss House
DR13 -0.01 dB -17.48 dB 2:41 06-The Gold Rush (1925) - Overture And Storm
DR12 -9.58 dB -28.06 dB 2:59 07-The Gold Rush (1925) - Thanksgiving Dinner
DR14 -7.47 dB -26.64 dB 3:54 08-The Gold Rush (1925) - Georgia
DR13 -8.60 dB -27.22 dB 1:25 09-The Gold Rush (1925) - Dance Of The Rolls
DR10 -9.00 dB -25.99 dB 2:05 10-The Gold Rush (1925) - Rejected
DR13 0.00 dB -18.75 dB 2:17 11-The Gold Rush (1925) - Discovery
DR12 -6.37 dB -24.23 dB 3:15 12-The Gold Rush (1925) - Chance Meeting And Finale
DR11 -2.73 dB -18.27 dB 1:37 13-The Circus (1928) - The Cicrcus March
DR12 -12.07 dB -29.62 dB 3:41 14-The Circus (1928) - Breakfast And A Hungry Girl
DR10 -6.87 dB -21.71 dB 1:36 15-The Circus (1928) - The Girl
DR12 -8.92 dB -25.67 dB 3:29 16-The Circus (1928) - Flirtation Walz
DR12 -3.05 dB -21.15 dB 2:45 17-The Circus (1928) - The Tightrope Walker
DR12 -1.69 dB -18.05 dB 1:28 18-City Lights (1931) - Fanfare
DR12 -6.88 dB -24.49 dB 2:18 19-City Lights (1931) - The Millionaire
DR13 -2.24 dB -18.11 dB 0:41 20-City Lights (1931) - The Nightclub 1
DR12 -6.69 dB -21.53 dB 0:40 21-City Lights (1931) - The Nightclub 2
DR13 -6.02 dB -21.96 dB 1:03 22-City Lights (1931) - The Nightclub 3
DR13 -4.64 dB -19.71 dB 1:32 23-City Lights (1931) - The Nightclub 4
DR12 -6.47 dB -25.63 dB 4:11 24-City Lights (1931) - The Flowerseller
DR13 -2.00 dB -19.20 dB 1:29 25-City Lights (1931) - The Boxing Ring
DR12 -0.98 dB -20.69 dB 1:43 26-City Lights (1931) - Finale
DR13 -0.89 dB -18.26 dB 1:12 27-Modern Times (1936) - Main Title
DR14 -2.27 dB -23.82 dB 3:49 28-Modern Times (1936) - Factory Mahines
DR14 -9.20 dB -27.56 dB 1:08 29-Modern Times (1936) - The Gamin
DR16 -6.46 dB -29.18 dB 2:07 30-Modern Times (1936) - Cafeteria And Cigar Shop
DR11 -17.31 dB -31.30 dB 1:42 31-Modern Times (1936) - Dream House (Smile)
DR11 -8.45 dB -22.78 dB 1:21 32-Modern Times (1936) - Department Store (Roller Skating)
DR12 -11.78 dB -27.53 dB 2:29 33-Modern Times (1936) - Lunchtime
DR11 -6.71 dB -24.58 dB 3:20 34-Modern Times (1936) - Into The Sunset (Smile)

Number of tracks: 34
Official DR value: DR12

Samplerate: 44100 Hz
Channels: 2
Bits per sample: 16
Bitrate: 649 kbps
Codec: FLAC

Charles Chaplin - The Film Music of Charles Chaplin (1996)

Charles Chaplin - The Film Music of Charles Chaplin (1996)

All thanks to original releaser
Passwordifneed: designol

DOWNLOAD LINKS
(Premium Recommended)


Links are Interchangeable - No Password - Single Extraction

Direct Download

Tags: Charles, Chaplin, Charles, Chaplin

Charles Chaplin - The Film Music of Charles Chaplin (1996) Download via Hotfile Rapidshare Fileserve Megaupload & FileSonic, Charles Chaplin - The Film Music of Charles Chaplin (1996) free torrent downloads included crack, serial, keygen.


Attention!Information

Members of Guest cannot leave comments.