Blue Chamber Quartet - Chick Corea: Children's Songs (2009, Stockfisch # SFR 357.4067.2) {Hybrid-SACD // EAC Rip}

Download Now


Blue Chamber Quartet - Chick Corea: Children's Songs (2009, Stockfisch # SFR 357.4067.2) {Hybrid-SACD // EAC Rip}
Blue Chamber Quartet - Chick Corea: Children's Songs
EAC+LOG+CUE | FLAC: 181 MB | Full Artwork: 107 MB | 5% Recovery Info
Label/Cat#: Stockfisch Records # SFR 357.4067.2 | Country/Year: Germany 2009 | 5% Recovery Info
Genre: Jazz, Classical | Style: Contemporary Jazz, Chamber Music

""...The music works beautifully in this arrangement by group member Thomas Schindl, scored for piano, harp, vibraphone, and double bass, along with a part for guest percussionist Sven von Samson. The colorful and unusual instrumentation creates an even broader expressive palette than the piano version, and the evocative percussion atmospherics that surround some of the pieces add about 10 minutes to the total duration of the suite. The playing is delicate and spirited throughout, and the sound quality of the SACD is balanced and detailed." ~allmusicguide"



Blue Chamber Quartet - Chick Corea: Children's Songs (2009, Stockfisch # SFR 357.4067.2) {Hybrid-SACD // EAC Rip}



Exact Audio Copy V1.0 beta 3 from 29. August 2011

EAC extraction logfile from 14. October 2014, 21:18

Blue Chamber Quartet / Corea: Children`s Songs

Used drive : PIONEER BD-RW BDR-206 Adapter: 0 ID: 2

Read mode : Secure
Utilize accurate stream : Yes
Defeat audio cache : Yes
Make use of C2 pointers : No

Read offset correction

: 667
Overread into Lead-In and Lead-Out : No
Fill up missing offset samples with silence : Yes
Delete leading and trailing silent blocks : No
Null samples used in CRC calculations : Yes
Used interface
: Native Win32 interface for Win NT & 2000

Used output format : User Defined Encoder
Selected bitrate : 1024 kBit/s
Quality : High
Add ID3 tag : Yes
Command line compressor : C:\Program Files\FLAC\flac.exe
Additional command line options : -5 -T "Artist=%artist%" -T "Title=%title%" -T "Album=%albumtitle%" -T "Date=%year%" -T "Tracknumber=%tracknr%" -T "Genre=%genre%" %source% -o %dest%

TOC of the extracted CD Track | Start | Length | Start sector | End sector
--1 | 0:00.00 | 3:28.31 | 0 | 15630 2 | 3:28.31 | 1:32.14 | 15631 | 22544 3 | 5:00.45 | 1:48.12 | 22545 | 30656 4 | 6:48.57 | 3:14.23 | 30657 | 45229 5 | 10:03.05 | 1:35.18 | 45230 | 52372 6 | 11:38.23 | 3:31.74 | 52373 | 68271 7 | 15:10.22 | 2:09.72 | 68272 | 78018 8 | 17:20.19 | 1:58.40 | 78019 | 86908 9 | 19:18.59 | 1:48.05 | 86909 | 95013
10 | 21:06.64 | 1:58.09 | 95014 | 103872
11 | 23:04.73 | 1:29.69 | 103873 | 110616
12 | 24:34.67 | 2:20.41 | 110617 | 121157
13 | 26:55.33 | 1:35.64 | 121158 | 128346
14 | 28:31.22 | 2:30.00 | 128347 | 139596
15 | 31:01.22 | 1:45.65 | 139597 | 147536
16 | 32:47.12 | 1:38.21 | 147537 | 154907
17 | 34:25.33 | 1:30.44 | 154908 | 161701
18 | 35:56.02 | 1:48.01 | 161702 | 169802
19 | 37:44.03 | 2:47.60 | 169803 | 182387
20 | 40:31.63 | 2:50.16 | 182388 | 195153

Range status and errors

Selected range Filename F:\=== VINYL RIPS ===\=== EAC===\X FRESH RIP\Blue Chamber Quartet - Children`s Songs.wav Peak level 94.4 %
Extraction speed 1.7 X
Range quality 100.0 %
Test CRC FEC4A35F
Copy CRC FEC4A35F
Copy OK

No errors occurred


AccurateRip summary

Track 1 accurately ripped (confidence 5) [0C374EA1] (AR v2)
Track 2 accurately ripped (confidence 5) [F60CF710] (AR v2)
Track 3 accurately ripped (confidence 5) [3D6F3F7F] (AR v2)
Track 4 accurately ripped (confidence 5) [E39BB9C3] (AR v2)
Track 5 accurately ripped (confidence 5) [A08765F8] (AR v2)
Track 6 accurately ripped (confidence 5) [01505789] (AR v2)
Track 7 accurately ripped (confidence 5) [D2D21CEF] (AR v2)
Track 8 accurately ripped (confidence 5) [2B27ED1F] (AR v2)
Track 9 accurately ripped (confidence 5) [774D376D] (AR v2)
Track 10 accurately ripped (confidence 5) [8C83316D] (AR v2)
Track 11 accurately ripped (confidence 5) [46F18E69] (AR v2)
Track 12 accurately ripped (confidence 5) [36BE3C53] (AR v2)
Track 13 accurately ripped (confidence 5) [C4155D4E] (AR v2)
Track 14 accurately ripped (confidence 5) [22BFC120] (AR v2)
Track 15 accurately ripped (confidence 5) [2C4CC1BF] (AR v2)
Track 16 accurately ripped (confidence 5) [DFC1A466] (AR v2)
Track 17 accurately ripped (confidence 5) [427FAEC6] (AR v2)
Track 18 accurately ripped (confidence 5) [D0861714] (AR v2)
Track 19 accurately ripped (confidence 5) [3EE1FA5E] (AR v2)
Track 20 accurately ripped (confidence 5) [DCE4CABD] (AR v2)

All tracks accurately ripped

End of status report

- CUETools DB Plugin V2.1.3

[CTDB TOCID: Zf5MKmA3qqzeEEcy8fvtAYmsZMA-] found, Submit result: Zf5MKmA3qqzeEEcy8fvtAYmsZMA- has been confirmed
[6763e60e] (9/9) Accurately ripped

==== Log checksum 230520B7B171DC8666FAE3EEF2D88A4F027AA7EE094916F5CC9CDCACE1C55F7B ====

foobar2000 1.1.14a / Dynamic Range Meter 1.1.1
log date: 2015-06-14 22:58:27

Analyzed: Blue Chamber Quartet / Children¦S Songs - By Chick Corea

DR Peak RMS Duration Track

DR11 -1.29 dB -19.18 dB 3:30 01-Children¦S Song No.1
DR10 -1.42 dB -16.28 dB 1:32 02-Children¦S Song No.2
DR11 -0.73 dB -16.85 dB 1:48 03-Children¦S Song No.3
DR9 -0.71 dB -15.27 dB 3:14 04-Children¦S Song No.4
DR11 -0.69 dB -16.16 dB 1:35 05-Children¦S Song No.5
DR8 -0.21 dB -12.56 dB 3:34 06-Children¦S Song No.6
DR11 -0.75 dB -17.73 dB 2:10 07-Children¦S Song No.7
DR10 -0.81 dB -16.36 dB 1:59 08-Children¦S Song No.8
DR11 -1.55 dB -16.84 dB 1:48 09-Children¦S Song No.9
DR11 -1.60 dB -18.58 dB 1:58 10-Children¦S Song No.10
DR10 -0.63 dB -15.47 dB 1:30 11-Children¦S Song No.11
DR9 -0.51 dB -12.90 dB 2:21 12-Children¦S Song No.12
DR10 -0.67 dB -13.72 dB 1:36 13-Children¦S Song No.13
DR11 -0.71 dB -15.71 dB 2:30 14-Children¦S Song No.14
DR12 -4.89 dB -20.93 dB 1:46 15-Children¦S Song No.15
DR10 -1.41 dB -15.20 dB 1:38 16-Children¦S Song No.16
DR12 -2.40 dB -20.06 dB 1:31 17-Children¦S Song No.17
DR8 -0.26 dB -10.24 dB 1:48 18-Children¦S Song No.18
DR13 -1.66 dB -20.91 dB 2:48 19-Children¦S Song No.19
DR11 -0.01 dB -16.95 dB 2:50 20-Children¦S Song No.20

Number of tracks: 20
Official DR value: DR10

Samplerate: 88200 Hz
Channels: 2
Bits per sample: 24
Bitrate: 2150 kbps
Codec: FLAC

CD Info:

Blue Chamber Quartet - Chick Corea: Children's Songs

Label: Stockfisch Records
Catalog#: SFR 357.4067.2
Format: Hybrid-SACD, Album, Stereo, Multichannel
Country: Germany
Released: 2009
Genre: Jazz, Classical
Style: Contemporary Jazz, Chamber Music

Tracklist:

1 No. 01 3:28
2 No. 02 1:32
3 No. 03 1:48
4 No. 04 3:14
5 No. 05 1:35
6 No. 06 3:32
7 No. 07 2:10
8 No. 08 1:59
9 No. 09 1:48
10 No. 10 1:58
11 No. 11 1:30
12 No. 12 2:21
13 No. 13 1:36
14 No. 14 2:30
15 No. 15 1:46
16 No. 16 1:38
17 No. 17 1:31
18 No. 18 1:48
19 No. 19 2:48
20 No. 20 2:50

BLUE CHAMBER QUARTET: Julia Bartha - piano / Angelika Siman - concert harp / Thomas Schindl - vibraphone / Holger Michalski - double bass / als Gast: Sven von Samson - percussion

"A word of warning: the notes to this CD may detract from the lovely music it contains. German ensemble Blue Chamber Quartet commissioned journalist Cathrin Kahlweit to write a brief essay for each of the work's 20 movements, first-person vignettes describing the lives of children in 20 countries that seemingly have no discernable relationship to Corea's gentle, sophisticated miniatures.

Corea wrote this suite of pieces for piano in the 1970s and '80s, and it has been recorded both in the original version and in various arrangements numerous times. The pieces are delightful -- playful, lively, graceful, and inventive -- and there is nothing about them that marks them as entertainment only for children. This is music that can be savored by anyone with a taste for directly communicative new music. The music works beautifully in this arrangement by group member Thomas Schindl, scored for piano, harp, vibraphone, and double bass, along with a part for guest percussionist Sven von Samson. The colorful and unusual instrumentation creates an even broader expressive palette than the piano version, and the evocative percussion atmospherics that surround some of the pieces add about 10 minutes to the total duration of the suite. The playing is delicate and spirited throughout, and the sound quality of the SACD is balanced and detailed. ~allmusicguide

Blue Chamber Quartet - Chick Corea: Children's Songs (2009, Stockfisch # SFR 357.4067.2) {Hybrid-SACD // EAC Rip}

"


""The arrangements are subtle and tasteful in expanding the simple but lovely melodies of each of the songs into quartet or quintet form." John Sunier: www.audaud.com"


Stockfisch related:


Blue Chamber Quartet - Chick Corea: Children's Songs (2009, Stockfisch # SFR 357.4067.2) {Hybrid-SACD // EAC Rip}


Download Links:
(Premium Recommended)


All above links are interchangable. No password

Direct Download

Tags: Chamber, Quartet, Children, Stockfisch, Hybrid

Blue Chamber Quartet - Chick Corea: Children's Songs (2009, Stockfisch # SFR 357.4067.2) {Hybrid-SACD // EAC Rip} Download via Hotfile Rapidshare Fileserve Megaupload & FileSonic, Blue Chamber Quartet - Chick Corea: Children's Songs (2009, Stockfisch # SFR 357.4067.2) {Hybrid-SACD // EAC Rip} free torrent downloads included crack, serial, keygen.


Attention!Information

Members of Guest cannot leave comments.