Art Blakey & Les Jazz-Messengers - Au Club Saint-Germain Vol.3 (1959) {2014 Japan Jazz Collection 1000 Columbia-RCA Series}

Download Now


Art Blakey & Les Jazz-Messengers - Au Club Saint-Germain Vol.3 (1959) {2014 Japan Jazz Collection 1000 Columbia-RCA Series}
Art Blakey & Les Jazz-Messengers - Au Club Saint-Germain Vol.3 (1959) {2014 Japan Jazz Collection 1000 Columbia-RCA Series}
EAC rip (secure mode) | FLAC (tracks)+CUE+LOG -> 245 Mb | MP3 @320 -> 94 Mb
Full Artwork @ 600 dpi (png) -> 187 Mb | 5% repair rar
© 2014 RCA / Sony Music Japan | SICP 3968
Jazz / Hard Bop

"Grand Prix Du Disque De L'académie Charles Cros 1959. Recorded at the celebrated Club Saint Germain, the formation presented here marks the third incarnation of Art Blakey's Jazz Messengers, with trumpeter Lee Morgan (then only 20 years old), tenor saxophonist Benny Golson, pianist Bobby Timmons and bassist Jymie Merrit. For the last two tunes, bop drum pioneer Kenny Clarke (who was living in Paris) substitutes Blakey. Besides the individual gifts of each member, the group forms a compact unit with a cohesive sound. "We play modern jazz", explained Blakey during a 1958 interview, "and to understand it you mus listen. We study, we rehearse. The Jazz Messengers are very serious about getting the music across to you. If you don't want to listen, maybe the person sitting next to you does.""

Art Blakey & Les Jazz-Messengers - Au Club Saint-Germain Vol.3 (1959) {2014 Japan Jazz Collection 1000 Columbia-RCA Series}


Personnel:
Art Blakey - drums
Lee Morgan - trumpet
Benny Golson - tenor saxophone
Bobby Timmons - piano
Jymie Merritt - bass
Kenny Clarke - drums (on 3-4)
Gana M'Bow -congas (on 3-4)

tracklist:
01 - Along Came Manon
02 - Out Of The Past
03 - A Night In Tunisia
04 - Ending With The Theme

Exact Audio Copy V1.0 beta 6 from 9. April 2015

EAC extraction logfile from 26. June 2015, 23:52

Art Blakey & Les Jazz-Messengers / Au Club Saint-Germain Vol.3

Used drive : ATAPI iHAS124 B Adapter: 2 ID: 0

Read mode : Secure
Utilize accurate stream : Yes
Defeat audio cache : Yes
Make use of C2 pointers : No

Read offset correction

: 6
Overread into Lead-In and Lead-Out : No
Fill up missing offset samples with silence : Yes
Delete leading and trailing silent blocks : No
Null samples used in CRC calculations : Yes
Used interface
: Installed external ASPI interface
Gap handling
: Appended to previous track

Used output format : User Defined Encoder
Selected bitrate : 1024 kBit/s
Quality : High
Add ID3 tag : No
Command line compressor : C:\Program Files (x86)\FLAC Frontend\tools\flac.exe
Additional command line options : -8 -V -T "ARTIST=%artist%" -T "TITLE=%title%" -T "ALBUM=%albumtitle%" -T "DATE=%year%" -T "TRACKNUMBER=%tracknr%" -T "TOTALTRACKS=%numtracks%" -T "GENRE=%genre%" -T "ALBUMARTIST=%albumartist%" -T "ALBUM ARTIST=%albumartist%" -T "COMMENT=EAC Secure Mode, Test & Copy, AccurateRip, FLAC -8" %source%

TOC of the extracted CD Track | Start | Length | Start sector | End sector
--1 | 0:00.00 | 10:08.05 | 0 | 45604 2 | 10:08.05 | 11:02.40 | 45605 | 95294 3 | 21:10.45 | 17:34.70 | 95295 | 174414 4 | 38:45.40 | 0:29.50 | 174415 | 176639

Track 1 Filename D:\_EAC\Art Blakey & Les Jazz-Messengers - Au Club Saint-Germain Vol.3 (1959) [FLAC] {2014 Japan}\01 - Along Came Manon.wav Pre-gap length 0:00:02.00 Peak level 98.0 %
Extraction speed 4.0 X
Track quality 100.0 %
Test CRC 892B5102
Copy CRC 892B5102
Accurately ripped (confidence 1) [D26FB5B3] (AR v2)
Copy OK

Track 2 Filename D:\_EAC\Art Blakey & Les Jazz-Messengers - Au Club Saint-Germain Vol.3 (1959) [FLAC] {2014 Japan}\02 - Out Of The Past.wav Pre-gap length 0:00:03.33 Peak level 98.0 %
Extraction speed 5.0 X
Track quality 100.0 %
Test CRC 660DF222
Copy CRC 660DF222
Accurately ripped (confidence 1) [69A2F887] (AR v2)
Copy OK

Track 3 Filename D:\_EAC\Art Blakey & Les Jazz-Messengers - Au Club Saint-Germain Vol.3 (1959) [FLAC] {2014 Japan}\03 - A Night In Tunisia.wav Pre-gap length 0:00:04.15 Peak level 98.0 %
Extraction speed 6.2 X
Track quality 100.0 %
Test CRC 3AE1C07F
Copy CRC 3AE1C07F
Accurately ripped (confidence 1) [20F87A89] (AR v2)
Copy OK

Track 4 Filename D:\_EAC\Art Blakey & Les Jazz-Messengers - Au Club Saint-Germain Vol.3 (1959) [FLAC] {2014 Japan}\04 - Ending With The Theme.wav Peak level 98.0 %
Extraction speed 3.0 X
Track quality 100.0 %
Test CRC A48FC539
Copy CRC A48FC539
Accurately ripped (confidence 1) [E8643D80] (AR v2)
Copy OK

All tracks accurately ripped

No errors occurred

End of status report

==== Log checksum 4921B95CEB37F0A2D78069A3DFA8773D6B5C64A29A3809501551843FB1A9055D ====

Art Blakey & Les Jazz-Messengers - Au Club Saint-Germain Vol.3 (1959) {2014 Japan Jazz Collection 1000 Columbia-RCA Series}

Art Blakey & Les Jazz-Messengers - Au Club Saint-Germain Vol.3 (1959) {2014 Japan Jazz Collection 1000 Columbia-RCA Series}

Download links:
(Buy premium account via my links to have best speed and resumable ability)


Interchangeable links - No Pass

Direct Download

Tags: Blakey, Collection, Columbia, Series

Art Blakey & Les Jazz-Messengers - Au Club Saint-Germain Vol.3 (1959) {2014 Japan Jazz Collection 1000 Columbia-RCA Series} Download via Hotfile Rapidshare Fileserve Megaupload & FileSonic, Art Blakey & Les Jazz-Messengers - Au Club Saint-Germain Vol.3 (1959) {2014 Japan Jazz Collection 1000 Columbia-RCA Series} free torrent downloads included crack, serial, keygen.


Attention!Information

Members of Guest cannot leave comments.