The Crusaders - Life In The Modern World (1988) {MCA}

Download Now

The Crusaders - Life In The Modern World (1988) {MCA}

The Crusaders - Life In The Modern World (1988) {MCA}
EAC 1.0b1 | FLAC tracks level 8 | Cue+Log+M3U | Full Scans 600dpi | 328MB + 5% Recovery
Genre: Jazz-Funk, Fusion, Soul

"The Crusaders are an American music group popular in the early 1970s known for their amalgamated jazz, pop, and soul sound. Since 1961, more than forty albums have been credited to the group (some live and compilations), 19 of which were recorded under the name "The Jazz Crusaders" (1961-1970)."

Track List
01. Passion Fruit 5:28
02. Let Me Prove Myself Tonight 4:34
03. A.C. ''Alternating'' Currents 4:00
04. Destiny 5:24
05. Life In The Modern World 5:21
06. Coulda; Woulda; Shoulda; 4:21
07. D.C. 5:35
08. Samplin' 4:04
09. Some People Just Never Learn 6:00
10. Mulholland Nights 4:34

musicians
Joe Sample - acoustic piano, keyboards
Wilton Felder - saxes
Nathan East - bass
Michael Landau - guitar
John Robinson - drums
Larry Williams - synths
Lenny Castro - percussion
david Williams - guitar
Paulinho da Costa - percussion
Eddie davis - trumpet
Nils Landgren - trombone
Phil Perry - background vocals

special guests:
Lamont Dozier - vocals on track 2
Ivan Lins - vocals on tracks 5, 9

Produced by Stewart Levine

Exact Audio Copy V1.0 beta 1 from 15. November 2010

EAC extraction logfile from 31. October 2011, 22:29

The Crusaders / Life In The Modern World

Used drive : ATAPI iHAS424 Y Adapter: 0 ID: 3

Read mode : Secure
Utilize accurate stream : Yes
Defeat audio cache : Yes
Make use of C2 pointers : No

Read offset correction

: 48
Overread into Lead-In and Lead-Out : No
Fill up missing offset samples with silence : Yes
Delete leading and trailing silent blocks : No
Null samples used in CRC calculations : Yes
Used interface
: Native Win32 interface for Win NT & 2000
Gap handling
: Appended to previous track

Used output format : User Defined Encoder
Selected bitrate : 768 kBit/s
Quality : High
Add ID3 tag : No
Command line compressor : C:\Program Files\Exact Audio Copy\Flac\flac.exe
Additional command line options : -8 -V -T "ARTIST=%a" -T "TITLE=%t" -T "ALBUM=%g" -T "DATE=%y" -T "TRACKNUMBER=%n" -T "TOTALTRACKS=%x" -T "GENRE=%m" -T "ALBUMARTIST=%v" -T "ALBUM ARTIST=%v" -T "COMMENT=EAC Secure Mode, Test & Copy, AccurateRip, FLAC -8" %s

TOC of the extracted CD Track | Start | Length | Start sector | End sector
--1 | 0:00.00 | 5:28.02 | 0 | 24601 2 | 5:28.02 | 4:34.28 | 24602 | 45179 3 | 10:02.30 | 4:00.65 | 45180 | 63244 4 | 14:03.20 | 5:24.30 | 63245 | 87574 5 | 19:27.50 | 5:21.50 | 87575 | 111699 6 | 24:49.25 | 4:21.30 | 111700 | 131304 7 | 29:10.55 | 5:35.50 | 131305 | 156479 8 | 34:46.30 | 4:04.50 | 156480 | 174829 9 | 38:51.05 | 6:00.00 | 174830 | 201829
10 | 44:51.05 | 4:34.45 | 201830 | 222424

Track 1 Filename G:\Uploads\The Crusaders - Life In The Modern World (1988) [FLAC]\01 - Passion Fruit.wav Pre-gap length 0:00:02.00 Peak level 73.2 %
Extraction speed 2.6 X
Track quality 100.0 %
Test CRC 1A9B8A72
Copy CRC 1A9B8A72
Track not present in AccurateRip database
Copy OK

Track 2 Filename G:\Uploads\The Crusaders - Life In The Modern World (1988) [FLAC]\02 - Let Me Prove Myself Tonight.wav Peak level 100.0 %
Extraction speed 2.8 X
Track quality 100.0 %
Test CRC 7C0A6AE2
Copy CRC 7C0A6AE2
Track not present in AccurateRip database
Copy OK

Track 3 Filename G:\Uploads\The Crusaders - Life In The Modern World (1988) [FLAC]\03 - A.C. ''Alternating'' Currents.wav Peak level 80.8 %
Extraction speed 3.0 X
Track quality 100.0 %
Test CRC 56EBA63A
Copy CRC 56EBA63A
Track not present in AccurateRip database
Copy OK

Track 4 Filename G:\Uploads\The Crusaders - Life In The Modern World (1988) [FLAC]\04 - Destiny.wav Pre-gap length 0:00:00.50 Peak level 100.0 %
Extraction speed 3.0 X
Track quality 99.9 %
Test CRC 1D4EE7F0
Copy CRC 1D4EE7F0
Track not present in AccurateRip database
Copy OK

Track 5 Filename G:\Uploads\The Crusaders - Life In The Modern World (1988) [FLAC]\05 - Life In The Modern World.wav Peak level 98.2 %
Extraction speed 3.6 X
Track quality 100.0 %
Test CRC C0D4FFB3
Copy CRC C0D4FFB3
Track not present in AccurateRip database
Copy OK

Track 6 Filename G:\Uploads\The Crusaders - Life In The Modern World (1988) [FLAC]\06 - Coulda; Woulda; Shoulda;.wav Pre-gap length 0:00:00.30 Peak level 79.4 %
Extraction speed 3.8 X
Track quality 100.0 %
Test CRC D669491F
Copy CRC D669491F
Track not present in AccurateRip database
Copy OK

Track 7 Filename G:\Uploads\The Crusaders - Life In The Modern World (1988) [FLAC]\07 - D.C..wav Peak level 83.8 %
Extraction speed 4.0 X
Track quality 100.0 %
Test CRC 8BFD4592
Copy CRC 8BFD4592
Track not present in AccurateRip database
Copy OK

Track 8 Filename G:\Uploads\The Crusaders - Life In The Modern World (1988) [FLAC]\08 - Samplin'.wav Peak level 66.8 %
Extraction speed 4.1 X
Track quality 100.0 %
Test CRC CD88DE56
Copy CRC CD88DE56
Track not present in AccurateRip database
Copy OK

Track 9 Filename G:\Uploads\The Crusaders - Life In The Modern World (1988) [FLAC]\09 - Some People Just Never Learn.wav Pre-gap length 0:00:01.60 Peak level 93.0 %
Extraction speed 3.5 X
Track quality 99.9 %
Test CRC C3ED6E29
Copy CRC C3ED6E29
Track not present in AccurateRip database
Copy OK

Track 10 Filename G:\Uploads\The Crusaders - Life In The Modern World (1988) [FLAC]\10 - Mulholland Nights.wav Peak level 87.7 %
Extraction speed 4.1 X
Track quality 99.9 %
Test CRC 26CC602C
Copy CRC 26CC602C
Track not present in AccurateRip database
Copy OK

None of the tracks are present in the AccurateRip database

No errors occurred

End of status report

==== Log checksum B1C252716180761DB897C3C322DB612765FFED76AE89F971174FD969CEEC4DD8 ====

Analyzed: The Crusaders / Life In The Modern World

DR Peak RMS Duration Track

DR8 -2.71 dB -12.93 dB 5:28 01-Passion Fruit
DR11 0.00 dB -13.36 dB 4:34 02-Let Me Prove Myself Tonight
DR10 -1.85 dB -13.83 dB 4:01 03-A.C. ''Alternating'' Currents
DR11 0.00 dB -14.51 dB 5:24 04-Destiny
DR10 -0.15 dB -12.80 dB 5:22 05-Life In The Modern World
DR9 -2.00 dB -13.69 dB 4:21 06-Coulda; Woulda; Shoulda;
DR11 -1.53 dB -14.64 dB 5:36 07-D.C.
DR9 -3.50 dB -13.85 dB 4:05 08-Samplin'
DR11 -0.63 dB -14.24 dB 6:00 09-Some People Just Never Learn
DR11 -1.13 dB -14.98 dB 4:35 10-Mulholland Nights

Number of tracks: 10
Official DR value: DR10

Samplerate: 44100 Hz
Channels: 2
Bits per sample: 16
Bitrate: 842 kbps
Codec: FLAC

The Crusaders - Life In The Modern World (1988) {MCA}

The Crusaders - Life In The Modern World (1988) {MCA}

The Crusaders - Life In The Modern World (1988) {MCA}

Rip by albundy


DOWNLOAD LINKS:
Buy Premium To Support Me & Get Resumable Support & Max Speed


Links are Interchangeable - No Password - Single Extraction

Direct Download

Tags: Crusaders, Modern

The Crusaders - Life In The Modern World (1988) {MCA} Download via Hotfile Rapidshare Fileserve Megaupload & FileSonic, The Crusaders - Life In The Modern World (1988) {MCA} free torrent downloads included crack, serial, keygen.


Attention!Information

Members of Guest cannot leave comments.