Venom - Rock Hard Festival 2015 [HDTV, 720p]

Download Now

Venom - Rock Hard Festival 2015 [HDTV, 720p]

Venom - Rock Hard Festival 2015
TS, MPEG4 Video (H264) 1280x720 50fps | Dolby AC3, 2 ch, 448 Kbps
Black / Thrash / Heavy Metal | 01:23:00 | ~ 5.82 Gb

~ Venom performing on May 22 at the Rock Hard Festival in Gelsenkirchen, Germany ~


Venom at Wiki | Venom at Discogs | Venom at Allmusic | Venom HomePage

***********
Venom - Rock Hard Festival 2015:


Tracklist:

01. Intro
02. Rise
03. Hammerhead
04. Bloodlust / Black Flame (Of Satan) / Bloodlust
05. Die Hard
06. Long Haired Punks
07. Buried Alive
08. The Evil One
09. Welcome to Hell
10. Antechrist
11 Countess Bathory
12. Flight of the Hydra
13. The Death of Rock 'n' Roll
14. Grinding Teeth
15. Pedal to the Metal
16. Warhead

Encore:
17. Black Metal
18. In League with Satan
19. Fallen Angels
20. Witching Hour

General
ID : 1 (0x1)
Complete name : G:\UP\Mix\Venom - Rock Hard Festival 2015\Venom - Rock Hard Festival 2015.ts
Format
: MPEG-TS
File size
: 5.52 GiB
Duration
: 1h 22mn
Overall bit rate mode : Variable
Overall bit rate : 9 526 Kbps

Video
ID : 5501 (0x157D)
Menu ID
: 1 (0x1)
Format
: AVC
Format/Info
: Advanced Video Codec
Format profile : [email protected]
Format settings, CABAC : Yes
Format settings, ReFrames : 4 frames
Codec ID
: 27
Duration
: 1h 22mn
Bit rate
: 8 603 Kbps
Width
: 1 280 pixels
Height
: 720 pixels
Display aspect ratio : 16:9
Frame rate
: 50.000 fps
Color space
: YUV
Chroma subsampling

: 4:2:0
Bit depth
: 8 bits
Scan type
: Progressive
Bits/(Pixel*Frame)

: 0.187
Stream size
: 4.99 GiB (90%)

Audio
ID : 5506 (0x1582)
Menu ID
: 1 (0x1)
Format
: AC-3
Format/Info
: Audio Coding 3
Mode extension : CM (complete main)
Format settings, Endianness : Big
Codec ID
: 6
Duration
: 1h 22mn
Bit rate mode : Constant
Bit rate
: 448 Kbps
Channel(s)
: 2 channels
Channel positions: Front: L R
Sampling rate : 48.0 KHz
Bit depth
: 16 bits
Compression mode : Lossy
Stream size
: 266 MiB (5%)
Language
: German

Text
ID : 5504 (0x1580)-100
Menu ID
: 1 (0x1)
Format
: Teletext
Language
: German

Menu
ID : 256 (0x100)
Menu ID
: 1 (0x1)
Duration
: 1h 22mn
List
: 5501 (0x157D) (AVC) / 5506 (0x1582) (AC-3, German) / 5504 (0x1580) ()
Language
: / German

Venom - Rock Hard Festival 2015 [HDTV, 720p]

Venom - Rock Hard Festival 2015 [HDTV, 720p]

Venom - Rock Hard Festival 2015 [HDTV, 720p]

Venom - Rock Hard Festival 2015 [HDTV, 720p]

Venom - Rock Hard Festival 2015 [HDTV, 720p]

Venom - Rock Hard Festival 2015 [HDTV, 720p]

Venom - Rock Hard Festival 2015 [HDTV, 720p]

Download Links:
(Premium Recommended)


All above links are interchangable. No password

Direct Download

Tags: Festival

Venom - Rock Hard Festival 2015 [HDTV, 720p] Download via Hotfile Rapidshare Fileserve Megaupload & FileSonic, Venom - Rock Hard Festival 2015 [HDTV, 720p] free torrent downloads included crack, serial, keygen.


Attention!Information

Members of Guest cannot leave comments.