Klaus Schulze feat. Lisa Gerrard - Dziękuję Bardzo - Vielen Dank (2009)

Download Now

Klaus Schulze feat. Lisa Gerrard - Dziękuję Bardzo - Vielen Dank (2009)

Klaus Schulze feat. Lisa Gerrard - Dziękuję Bardzo - Vielen Dank (2009)
EAC Rip | FLAC (tracks+.cue+log) - 841 MB | MP3 CBR 320 kbps (LAME 3.93) - 414 MB | Covers (9 MB) included
Genre: Electronic, Berlin School | RAR 3% Rec. | Label: SPV/Synthetic Symphony (SPV 306872 3CD)

"After the extremely successful studio album Farscape and the live CD/DVD Rheingold, Schulze and Gerrard release yet another live CD revealing further highlights, entitled Dziękuję Bardzo (Polish for 'Many Thanks'). This 3-CD set not only contains a complete recording of the concert which took place on the 13th of November 2008 in the Bazylika Ojców Salezjanów in Warsaw, but also a complete concert recorded the day before in the Schiller's Theatre in Berlin..."

CD 1 Tracklist:
01. Shoreless Two
02. Bazylika NSJ

Total time: 01:09:57

CD 2 Tracklist:
01. Godspell
02. Shoreless One

Total time: 53:41

CD 3 Tracklist:
01. Ocean Of Innocence
02. Spanish Ballerina

Total time: 48:10

Exact Audio Copy V0.99 prebeta 4 from 23. January 2008

EAC extraction logfile from 11. June 2009, 17:33

Klaus Schulze & Lisa Gerrard / DZIEKUJE BARDZO - VIELEN DANK CD1

Used drive : TSSTcorpDVD+-RW TS-T633A Adapter: 1 ID: 0

Read mode : Secure
Utilize accurate stream : Yes
Defeat audio cache : Yes
Make use of C2 pointers : No

Read offset correction

: 6
Overread into Lead-In and Lead-Out : No
Fill up missing offset samples with silence : Yes
Delete leading and trailing silent blocks : No
Null samples used in CRC calculations : Yes
Used interface
: Native Win32 interface for Win NT & 2000
Gap handling
: Appended to previous track

Used output format : User Defined Encoder
Selected bitrate : 1024 kBit/s
Quality : High
Add ID3 tag : No
Command line compressor : C:\Program Files (x86)\Exact Audio Copy\FLAC\FLAC.EXE
Additional command line options : -V -8 -T "artist=%a" -T "title=%t" -T "album=%g" -T "date=%y" -T "tracknumber=%n" -T "genre=%m" %s

TOC of the extracted CD Track | Start | Length | Start sector | End sector
--1 | 0:00.00 | 28:23.22 | 0 | 127746 2 | 28:23.22 | 41:34.04 | 127747 | 314800

Track 1 01 - Shoreless Two.wav Pre-gap length 0:00:02.00 Peak level 96.8 %
Track quality 100.0 %
Test CRC D5B100D0
Copy CRC D5B100D0
Track not present in AccurateRip database
Copy OK

Track 2 02 - Bazylika NSJ.wav Peak level 96.4 %
Track quality 100.0 %
Test CRC FEAC8D82
Copy CRC FEAC8D82
Track not present in AccurateRip database
Copy OK

None of the tracks are present in the AccurateRip database

No errors occurred

End of status report

[CUETools log; Date: 27.06.2015 19:13:17; Version: 2.1.4]
[CTDB TOCID: xRFe9cqKePD8WVLySp2auRAtTjs-] found.
Track | CTDB Status
1 | (19/19) Accurately ripped
2 | (18/19) Accurately ripped
[AccurateRip ID: 0006c0b4-00124f1a-0f106502] found.
Track [ CRC | V2 ] Status
01 [1ecb6c74|c8cb030b] (16+24/40) Accurately ripped
02 [77b1186d|07117287] (15+24/39) Accurately ripped

Track Peak [ CRC32 ] [W/O NULL] [ LOG ]
-- 96,8 [8DCE3229] [CEE90406]
01 96,8 [D5B100D0] C7C3453 CRC32
02 96,4 [FEAC8D82] 678CE88 CRC32

Exact Audio Copy V0.99 prebeta 4 from 23. January 2008

EAC extraction logfile from 11. June 2009, 18:57

Klaus Schulze & Lisa Gerrard / DZIEKUJE BARDZO - VIELEN DANK CD2

Used drive : TSSTcorpDVD+-RW TS-T633A Adapter: 1 ID: 0

Read mode : Secure
Utilize accurate stream : Yes
Defeat audio cache : Yes
Make use of C2 pointers : No

Read offset correction

: 6
Overread into Lead-In and Lead-Out : No
Fill up missing offset samples with silence : Yes
Delete leading and trailing silent blocks : No
Null samples used in CRC calculations : Yes
Used interface
: Native Win32 interface for Win NT & 2000
Gap handling
: Appended to previous track

Used output format : User Defined Encoder
Selected bitrate : 1024 kBit/s
Quality : High
Add ID3 tag : No
Command line compressor : C:\Program Files (x86)\Exact Audio Copy\FLAC\FLAC.EXE
Additional command line options : -V -8 -T "artist=%a" -T "title=%t" -T "album=%g" -T "date=%y" -T "tracknumber=%n" -T "genre=%m" %s

TOC of the extracted CD Track | Start | Length | Start sector | End sector
--1 | 0:00.00 | 20:25.73 | 0 | 91947 2 | 20:25.73 | 33:14.71 | 91948 | 241568

Track 1 01 - Godspell (The Berlin Concert).wav Pre-gap length 0:00:02.00 Peak level 91.4 %
Track quality 99.9 %
Test CRC 0993729E
Copy CRC 0993729E
Track not present in AccurateRip database
Copy OK

Track 2 02 - Shoreless One.wav Peak level 89.5 %
Track quality 100.0 %
Test CRC F1990088
Copy CRC F1990088
Track not present in AccurateRip database
Copy OK

None of the tracks are present in the AccurateRip database

No errors occurred

End of status report

[CUETools log; Date: 27.06.2015 19:27:41; Version: 2.1.4]
[CTDB TOCID: Wy0JNbLWmYKaH170PQNGRKWBK0o-] found.
Track | CTDB Status
1 | (17/17) Accurately ripped
2 | (17/17) Accurately ripped
[AccurateRip ID: 000516cd-000ddd3c-0e0c9402] found.
Track [ CRC | V2 ] Status
01 [4c56b8b7|6180bb9c] (16+24/40) Accurately ripped
02 [dad4c837|0478cea9] (16+24/40) Accurately ripped

Track Peak [ CRC32 ] [W/O NULL] [ LOG ]
-- 91,4 8D4DDCD [92FBBAA7]
01 91,4 [0993729E] [39ED9656] CRC32
02 89,5 [F1990088] [9141B992] CRC32

Exact Audio Copy V0.99 prebeta 4 from 23. January 2008

EAC extraction logfile from 11. June 2009, 20:38

Klaus Schulze & Lisa Gerrard / DZIEKUJE BARDZO - VIELEN DANK CD3

Used drive : TSSTcorpDVD+-RW TS-T633A Adapter: 1 ID: 0

Read mode : Secure
Utilize accurate stream : Yes
Defeat audio cache : Yes
Make use of C2 pointers : No

Read offset correction

: 6
Overread into Lead-In and Lead-Out : No
Fill up missing offset samples with silence : Yes
Delete leading and trailing silent blocks : No
Null samples used in CRC calculations : Yes
Used interface
: Native Win32 interface for Win NT & 2000
Gap handling
: Appended to previous track

Used output format : User Defined Encoder
Selected bitrate : 1024 kBit/s
Quality : High
Add ID3 tag : No
Command line compressor : C:\Program Files (x86)\Exact Audio Copy\FLAC\FLAC.EXE
Additional command line options : -V -8 -T "artist=%a" -T "title=%t" -T "album=%g" -T "date=%y" -T "tracknumber=%n" -T "genre=%m" %s

TOC of the extracted CD Track | Start | Length | Start sector | End sector
--1 | 0:00.00 | 41:32.07 | 0 | 186906 2 | 41:32.07 | 6:38.01 | 186907 | 216757

Track 1 01 - Ocean Of Innocence.wav Pre-gap length 0:00:02.00 Peak level 91.0 %
Track quality 100.0 %
Test CRC D5FD0ABF
Copy CRC D5FD0ABF
Track not present in AccurateRip database
Copy OK

Track 2 02 - Spanish Ballerina.wav Peak level 79.5 %
Track quality 100.0 %
Test CRC A64FDE30
Copy CRC A64FDE30
Track not present in AccurateRip database
Copy OK

None of the tracks are present in the AccurateRip database

No errors occurred

End of status report

[CUETools log; Date: 27.06.2015 19:55:59; Version: 2.1.4]
[CTDB TOCID: ec9LMMcyQ_bxVsJ2aNIdpQWhv0Y-] found.
Track | CTDB Status
1 | (17/17) Accurately ripped
2 | (17/17) Accurately ripped
[AccurateRip ID: 000628d1-000fa059-150b4a02] found.
Track [ CRC | V2 ] Status
01 [4840dfe5|4b28b35d] (16+24/40) Accurately ripped
02 [c1da0867|85dbb2f8] (16+24/40) Accurately ripped

Track Peak [ CRC32 ] [W/O NULL] [ LOG ]
-- 91,0 [090EEEE9] [E5119670]
01 91,0 [D5FD0ABF] [702408F0] CRC32
02 79,5 [A64FDE30] [100A2B01] CRC32
Thanks to phoenix93

More Klaus Schulze's releases from my blog:
DOWNLOAD
(Premium Recommended)


All above links are interchangable. No password

Direct Download

Tags: Schulze, Gerrard, Bardzo, Vielen

Klaus Schulze feat. Lisa Gerrard - Dziękuję Bardzo - Vielen Dank (2009) Download via Hotfile Rapidshare Fileserve Megaupload & FileSonic, Klaus Schulze feat. Lisa Gerrard - Dziękuję Bardzo - Vielen Dank (2009) free torrent downloads included crack, serial, keygen.


Attention!Information

Members of Guest cannot leave comments.