Larry Coryell - Spaces Revisited (1997) {Shanachie}

Download Now

Larry Coryell - Spaces Revisited (1997) {Shanachie}

Larry Coryell - Spaces Revisited (1997) {Shanachie}
EAC 0.00pb4 | FLAC tracks level 8 | Cue+Log+M3U | Full Scans 300dpi | 342MB + 5% Recovery
Genre: Fusion

"What started as a project to reunite Coryell with Billy Cobham on drums in order to take a second look at the sound and style of the Coryell's Spaces ended up creating a whole new chapter instead. With Richard Bona on bass and Bireli Lagrene on guitar, these nine songs capture the spirit of that 30-year-old session with new, adventuresome playing and vigor."

Track List
01. The Dragon Gate (Larry Coryell) 6:25
02. Hong Kong Breeze (Larry Coryell) 8:22
03. Spaces Revisited (Larry Coryell) 7:02
04. Variations On Good-Bye Pork Pie Hat (Charles Mingus) 7:59
05. Blues For Django And Stephane (Larry Coryell) 5:20
06. Morning Of The Carnival (Louis Bounfa) 7:25
07. Oleo (Sonny Rollins) 5:00
08. Introduction To "Ruby" (Larry Coryell) 1:31
09. Ruby, My Dear (Thelonius Monk) 4:19

musicians
Larry Coryell - guitars
Bireli Lagrene - guitars
Billy Cobham - drums
Richard Bona - bass

Produced by Larry Coryell and Danny Weiss

Exact Audio Copy V0.99 prebeta 4 from 23. January 2008

EAC extraction logfile from 21. August 2008, 17:58

Larry Coryell / Spaces Revisited

Used drive : PIONEER DVD-RW DVR-112D Adapter: 0 ID: 0

Read mode : Secure
Utilize accurate stream : Yes
Defeat audio cache : Yes
Make use of C2 pointers : No

Read offset correction

: 48
Overread into Lead-In and Lead-Out : No
Fill up missing offset samples with silence : Yes
Delete leading and trailing silent blocks : No
Null samples used in CRC calculations : Yes
Used interface
: Installed external ASPI interface
Gap handling
: Appended to previous track

Used output format : User Defined Encoder
Selected bitrate : 320 kBit/s
Quality : High
Add ID3 tag : Yes
Command line compressor : C:\Program Files\Exact Audio Copy\Flac\flac.exe
Additional command line options : -V -8 -T "artist=%a" -T "title=%t" -T "album=%g" -T "date=%y" -T "tracknumber=%n" -T "genre=%m" %s

TOC of the extracted CD Track | Start | Length | Start sector | End sector
--1 | 0:00.00 | 6:29.62 | 0 | 29236 2 | 6:29.62 | 8:24.68 | 29237 | 67104 3 | 14:54.55 | 7:04.47 | 67105 | 98951 4 | 21:59.27 | 8:02.50 | 98952 | 135151 5 | 30:02.02 | 5:23.70 | 135152 | 159446 6 | 35:25.72 | 7:30.73 | 159447 | 193269 7 | 42:56.70 | 5:04.05 | 193270 | 216074 8 | 48:01.00 | 1:33.10 | 216075 | 223059 9 | 49:34.10 | 4:24.10 | 223060 | 242869

Track 1 Filename D:\music\rip\Larry Coryell - Spaces Revisited (1997) {Grammy, Russia}\01 - The Dragon Gate.wav Pre-gap length 0:00:02.00 Peak level 100.0 %
Track quality 99.9 %
Test CRC DDB57F53
Copy CRC DDB57F53
Cannot be verified as accurate (confidence 2) [068631FA], AccurateRip returned [1954FB86]
Copy OK

Track 2 Filename D:\music\rip\Larry Coryell - Spaces Revisited (1997) {Grammy, Russia}\02 - Hong Kong Breeze.wav Pre-gap length 0:00:02.76 Peak level 100.0 %
Track quality 100.0 %
Test CRC 54B196D1
Copy CRC 54B196D1
Cannot be verified as accurate (confidence 2) [344A3DCE], AccurateRip returned [0366CB22]
Copy OK

Track 3 Filename D:\music\rip\Larry Coryell - Spaces Revisited (1997) {Grammy, Russia}\03 - Spaces Revisited.wav Pre-gap length 0:00:02.77 Peak level 99.7 %
Track quality 100.0 %
Test CRC 0680D953
Copy CRC 0680D953
Cannot be verified as accurate (confidence 2) [0F493664], AccurateRip returned [1C41128A]
Copy OK

Track 4 Filename D:\music\rip\Larry Coryell - Spaces Revisited (1997) {Grammy, Russia}\04 - Variations on Good-Bye Pork Pie Hat.wav Pre-gap length 0:00:02.76 Peak level 100.0 %
Track quality 100.0 %
Test CRC 8D643D69
Copy CRC 8D643D69
Cannot be verified as accurate (confidence 2) [C0895E59], AccurateRip returned [5BEBBB6B]
Copy OK

Track 5 Filename D:\music\rip\Larry Coryell - Spaces Revisited (1997) {Grammy, Russia}\05 - Blues For Django And Stephane.wav Pre-gap length 0:00:02.76 Peak level 99.9 %
Track quality 100.0 %
Test CRC 5B25030E
Copy CRC 5B25030E
Cannot be verified as accurate (confidence 2) [3FF830CF], AccurateRip returned [DFCCEA3B]
Copy OK

Track 6 Filename D:\music\rip\Larry Coryell - Spaces Revisited (1997) {Grammy, Russia}\06 - Morning Of The Carnival.wav Pre-gap length 0:00:02.76 Peak level 99.9 %
Track quality 100.0 %
Test CRC 5A718C22
Copy CRC 5A718C22
Cannot be verified as accurate (confidence 2) [07B0D2CC], AccurateRip returned [9F5D8070]
Copy OK

Track 7 Filename D:\music\rip\Larry Coryell - Spaces Revisited (1997) {Grammy, Russia}\07 - Oleo.wav Pre-gap length 0:00:02.77 Peak level 100.0 %
Track quality 100.0 %
Test CRC CD98E0FF
Copy CRC CD98E0FF
Cannot be verified as accurate (confidence 2) [A3A75876], AccurateRip returned [F68F412C]
Copy OK

Track 8 Filename D:\music\rip\Larry Coryell - Spaces Revisited (1997) {Grammy, Russia}\08 - Introduction To 'Ruby'.wav Pre-gap length 0:00:02.77 Peak level 96.8 %
Track quality 100.0 %
Test CRC 70115BC0
Copy CRC 70115BC0
Cannot be verified as accurate (confidence 2) [368D1171], AccurateRip returned [90B8C8F5]
Copy OK

Track 9 Filename D:\music\rip\Larry Coryell - Spaces Revisited (1997) {Grammy, Russia}\09 - Ruby My Dear.wav Peak level 100.0 %
Track quality 100.0 %
Test CRC D6D61D1F
Copy CRC D6D61D1F
Cannot be verified as accurate (confidence 2) [65B80CB4], AccurateRip returned [646D645F]
Copy OK

No tracks could be verified as accurate
You may have a different pressing from the one(s) in the database

No errors occurred

End of status report

Analyzed: Larry Coryell / Spaces Revisited

DR Peak RMS Duration Track

DR8 0.00 dB -10.17 dB 6:30 01-The Dragon Gate
DR10 0.00 dB -12.65 dB 8:25 02-Hong Kong Breeze
DR10 -0.03 dB -12.24 dB 7:05 03-Spaces Revisited
DR9 0.00 dB -12.13 dB 8:03 04-Variations on Good-Bye Pork Pie Hat
DR9 0.00 dB -11.26 dB 5:24 05-Blues For Django And Stephane
DR9 0.00 dB -11.73 dB 7:31 06-Morning Of The Carnival
DR8 0.00 dB -9.68 dB 5:04 07-Oleo
DR9 -0.28 dB -11.75 dB 1:33 08-Introduction To 'Ruby'
DR8 0.00 dB -10.53 dB 4:24 09-Ruby My Dear

Number of tracks: 9
Official DR value: DR9

Samplerate: 44100 Hz
Channels: 2
Bits per sample: 16
Bitrate: 768 kbps
Codec: FLAC

Larry Coryell - Spaces Revisited (1997) {Shanachie}

Larry Coryell - Spaces Revisited (1997) {Shanachie}

Larry Coryell - Spaces Revisited (1997) {Shanachie}



DOWNLOAD LINKS:
Buy Premium To Support Me & Get Resumable Support & Max Speed


Links are Interchangeable - No Password - Single Extraction

Direct Download

Tags: Coryell, Spaces, Revisited, Shanachie

Larry Coryell - Spaces Revisited (1997) {Shanachie} Download via Hotfile Rapidshare Fileserve Megaupload & FileSonic, Larry Coryell - Spaces Revisited (1997) {Shanachie} free torrent downloads included crack, serial, keygen.


Attention!Information

Members of Guest cannot leave comments.