Clifford Thornton New Art Ensemble - Freedom & Unity (1967) {2001 Atavistic Unheard Music Series}

Download Now


Clifford Thornton New Art Ensemble - Freedom & Unity (1967) {2001 Atavistic Unheard Music Series}
Clifford Thornton New Art Ensemble - Freedom & Unity (1967) {2001 Atavistic Unheard Music Series}
EAC rip (secure mode) | FLAC (tracks)+CUE+LOG -> 495 Mb | MP3 @320 -> 180 Mb
Full Artwork @ 600 dpi (jpg) -> 68 Mb | 5% repair rar
© 2001 Third World / Atavistic | Unheard Music Series | UMS / ALP225CD
Jazz / Modern Creative / Free Jazz / Trombone

"For those who don't know better, the free jazz movement is considered a sharp break with the past heritage of the music. That really wasn't the case. As Albert Ayler and Archie Shepp hearkened back to field hollers and very basic folk forms, musicians like Clifford Thornton went in the opposite direction, building on the music of the sophisticates and expanding the possibilities for jazz. Listening to music with this much space in it, it might be hard for some listeners to hear the Mingus. But it's there. And because that's there, Ellington is here in heaping handfuls as well. Sure this stuff is rough in spots."

Clifford Thornton New Art Ensemble - Freedom & Unity (1967) {2001 Atavistic Unheard Music Series}


AAJ INFO

Personnel:
Clifford Thornton - valve trombone
Sonny King - alto saxophone
Karl Berger - vibes
Don Moore - bass
Harold (Nunding) Avent - drums
Joe McPhee - trumpet
Edward Avent - cornet
Jimmy Garrison - bass
Tyrone Crabb - bass

tracklist:
01 - Free Huey
02 - 15th FLoor
03 - Miss Oula
04 - Kevin (The Theme)
05 - Exosphere
06 - Uhuru
07 - ''O.C.T.''
08 - The Wake (complete version)
09 - Babe's Dilemma
10 - ''O.C.T.'' (alternate take)

Exact Audio Copy V1.0 beta 3 from 29. August 2011

EAC extraction logfile from 29. May 2013, 7:49

Clifford Thornton New Art Ensemble / Freedom & Unity

Used drive : TSSTcorpCDDVDW SH-S222A Adapter: 1 ID: 0

Read mode : Secure
Utilize accurate stream : Yes
Defeat audio cache : Yes
Make use of C2 pointers : No

Read offset correction

: 6
Overread into Lead-In and Lead-Out : No
Fill up missing offset samples with silence : Yes
Delete leading and trailing silent blocks : No
Null samples used in CRC calculations : Yes
Used interface
: Native Win32 interface for Win NT & 2000
Gap handling
: Appended to previous track

Used output format : User Defined Encoder
Selected bitrate : 896 kBit/s
Quality : High
Add ID3 tag : No
Command line compressor : C:\Tool\CD\EAC10\FLAC\FLAC.EXE
Additional command line options : -8 -V -T "ARTIST=%artist%" -T "TITLE=%title%" -T "ALBUM=%albumtitle%" -T "DATE=%year%" -T "TRACKNUMBER=%tracknr%" -T "GENRE=%genre%" -T "PERFORMER=%albuminterpret%" -T "COMPOSER=%composer%" %haslyrics%--tag-from-file=LYRICS="%lyricsfile%"%haslyrics% -T "ALBUMARTIST=%albumartist%" -T "ALBUM ARTIST=%albumartist%" -T "DISCNUMBER=%cdnumber%" -T "TOTALDISCS=%totalcds%" -T "TOTALTRACKS=%numtracks%" -T "COMMENT=EAC V1.0 beta 3, Secure Mode, Test & Copy, AccurateRip, FLAC -8" %source% -o %dest%

TOC of the extracted CD Track | Start | Length | Start sector | End sector
--1 | 0:01.00 | 13:10.20 | 75 | 59344 2 | 13:11.20 | 8:51.35 | 59345 | 99204 3 | 22:02.55 | 4:43.32 | 99205 | 120461 4 | 26:46.12 | 0:21.62 | 120462 | 122098 5 | 27:07.74 | 10:09.13 | 122099 | 167786 6 | 37:17.12 | 8:28.11 | 167787 | 205897 7 | 45:45.23 | 4:30.19 | 205898 | 226166 8 | 50:15.42 | 14:13.72 | 226167 | 290213 9 | 64:29.39 | 5:09.56 | 290214 | 313444
10 | 69:39.20 | 6:23.63 | 313445 | 342232

Track 1 Filename C:\! UPLOAD\Clifford Thornton New Art Ensemble - Freedom & Unity (2001) [FLAC]\01 - Free Huey.wav Pre-gap length 0:00:03.00 Peak level 100.0 %
Extraction speed 5.8 X
Track quality 100.0 %
Test CRC 4C0951CF
Copy CRC 4C0951CF
Cannot be verified as accurate (confidence 1) [5933BCA6], AccurateRip returned [D3CF06A7] (AR v2)
Copy OK

Track 2 Filename C:\! UPLOAD\Clifford Thornton New Art Ensemble - Freedom & Unity (2001) [FLAC]\02 - 15th FLoor.wav Pre-gap length 0:00:06.03 Peak level 95.2 %
Extraction speed 6.8 X
Track quality 100.0 %
Test CRC 4280FA93
Copy CRC 4280FA93
Cannot be verified as accurate (confidence 1) [E07AB051], AccurateRip returned [061854DB] (AR v2)
Copy OK

Track 3 Filename C:\! UPLOAD\Clifford Thornton New Art Ensemble - Freedom & Unity (2001) [FLAC]\03 - Miss Oula.wav Pre-gap length 0:00:07.14 Peak level 74.8 %
Extraction speed 7.0 X
Track quality 100.0 %
Test CRC E19FF9FD
Copy CRC E19FF9FD
Cannot be verified as accurate (confidence 1) [7429C2E0], AccurateRip returned [EAF35967] (AR v2)
Copy OK

Track 4 Filename C:\! UPLOAD\Clifford Thornton New Art Ensemble - Freedom & Unity (2001) [FLAC]\04 - Kevin (The Theme).wav Pre-gap length 0:00:03.46 Peak level 92.4 %
Extraction speed 2.9 X
Track quality 100.0 %
Test CRC 45CF6A14
Copy CRC 45CF6A14
Cannot be verified as accurate (confidence 1) [75734456], AccurateRip returned [7ADD3588] (AR v2)
Copy OK

Track 5 Filename C:\! UPLOAD\Clifford Thornton New Art Ensemble - Freedom & Unity (2001) [FLAC]\05 - Exposure.wav Pre-gap length 0:00:03.57 Peak level 95.5 %
Extraction speed 8.0 X
Track quality 100.0 %
Test CRC 73378050
Copy CRC 73378050
Cannot be verified as accurate (confidence 1) [E4895E84], AccurateRip returned [27DD8AC4] (AR v2)
Copy OK

Track 6 Filename C:\! UPLOAD\Clifford Thornton New Art Ensemble - Freedom & Unity (2001) [FLAC]\06 - Uhuru.wav Pre-gap length 0:00:07.57 Peak level 84.4 %
Extraction speed 8.5 X
Track quality 100.0 %
Test CRC F2BAD509
Copy CRC F2BAD509
Cannot be verified as accurate (confidence 1) [8F8BA3C1], AccurateRip returned [7F1D6010] (AR v2)
Copy OK

Track 7 Filename C:\! UPLOAD\Clifford Thornton New Art Ensemble - Freedom & Unity (2001) [FLAC]\07 - ''O.C.T.''.wav Pre-gap length 0:00:03.57 Peak level 68.8 %
Extraction speed 6.9 X
Track quality 99.9 %
Test CRC A86B27EE
Copy CRC A86B27EE
Cannot be verified as accurate (confidence 1) [371AE4A7], AccurateRip returned [4F831940] (AR v2)
Copy OK

Track 8 Filename C:\! UPLOAD\Clifford Thornton New Art Ensemble - Freedom & Unity (2001) [FLAC]\08 - The Wake (complete version).wav Pre-gap length 0:00:03.57 Peak level 73.8 %
Extraction speed 9.7 X
Track quality 100.0 %
Test CRC F9F26A27
Copy CRC F9F26A27
Cannot be verified as accurate (confidence 1) [1434B0C8], AccurateRip returned [50FBFA1D] (AR v2)
Copy OK

Track 9 Filename C:\! UPLOAD\Clifford Thornton New Art Ensemble - Freedom & Unity (2001) [FLAC]\09 - Babe's Dilemma.wav Pre-gap length 0:00:03.57 Peak level 73.3 %
Extraction speed 8.0 X
Track quality 99.9 %
Test CRC 9264C5EC
Copy CRC 9264C5EC
Cannot be verified as accurate (confidence 1) CB3A7F1, AccurateRip returned 0A18AB5 (AR v2)
Copy OK

Track 10 Filename C:\! UPLOAD\Clifford Thornton New Art Ensemble - Freedom & Unity (2001) [FLAC]\10 - ''O.C.T.'' (alternate take).wav Pre-gap length 0:00:03.57 Peak level 75.7 %
Extraction speed 10.0 X
Track quality 100.0 %
Test CRC 718CDEDF
Copy CRC 718CDEDF
Cannot be verified as accurate (confidence 1) [4E70980E], AccurateRip returned [9C6446A1] (AR v2)
Copy OK

No tracks could be verified as accurate
You may have a different pressing from the one(s) in the database

No errors occurred

End of status report

==== Log checksum 62755BEA5BCFDEFB93A3B11E074E9EB2161E57C84712EF71EC4767101C61BE84 ====

Clifford Thornton New Art Ensemble - Freedom & Unity (1967) {2001 Atavistic Unheard Music Series}

Clifford Thornton New Art Ensemble - Freedom & Unity (1967) {2001 Atavistic Unheard Music Series}


All thanks goes to the original releaser!
DOWNLOAD LINKS
(Premium Recommended)


Links are Interchangeable - No Password - Single Extraction

Direct Download

Tags: Clifford, Thornton, Ensemble, Freedom, Atavistic, Unheard, Series

Clifford Thornton New Art Ensemble - Freedom & Unity (1967) {2001 Atavistic Unheard Music Series} Download via Hotfile Rapidshare Fileserve Megaupload & FileSonic, Clifford Thornton New Art Ensemble - Freedom & Unity (1967) {2001 Atavistic Unheard Music Series} free torrent downloads included crack, serial, keygen.


Attention!Information

Members of Guest cannot leave comments.