Gigi Gryce Orch-tete - Reminiscin' (1960) {2013 Japan Jazz The Best Series 24-bit Remaster}

Download Now


Gigi Gryce Orch-tete - Reminiscin' (1960) {2013 Japan Jazz The Best Series 24-bit Remaster}
Gigi Gryce Orch-tete - Reminiscin' (1960) {2013 Japan Jazz The Best Series 24-bit Remaster}
EAC rip (secure mode) | FLAC (tracks)+CUE+LOG -> 173 Mb | MP3 @320 -> 79 Mb
Full Artwork @ 600 dpi (png) -> 132 Mb | 5% repair rar | 24-bit remaster
© 2013 Mercury / Verve / Universal Japan | UCCU-9963
Jazz / Hard Bop / Saxophone

"A great lost date from the wonderful Gigi Gryce - a set that features the altoist in an sextet, but often swinging with a looser vibe than on some of his better-known albums from the 50s! There's a mix of soulful and modern here that's not unlike the Art Farmer/Benny Golson Jazztet - both players of Gryce's same postwar generation, and coincidentally recording for Mercury at the same time. Although the groove here is definitely different - less emphasis on the bottom, and more on the top - not just Gryce's wonderfully raspy alto, but also the trumpet of Richard Williams too. All other players are great as well - and Eddie Costa brings in some sweet vibes - in a lineup that also features Richard Wyands on piano, and either Reggie Workman or George Duvivier on bass, and either Walter Perkins or Bob Thomas on drums. Tracks include "Reminiscing", "Gee Blues Gee", "Blue Light", and "Night In Tunisia"."

Gigi Gryce Orch-tete - Reminiscin' (1960) {2013 Japan Jazz The Best Series 24-bit Remaster}


Personnel:
Gigi Gryce - alto saxophone
Richard Williams - trumpet
Eddie Costa - vibes
Richard Wyands - piano
George Duvivier - bass
Julian Euell - bass
Reggie Workman - bass
Walter Perkins - drums
Bobby Thomas - drums

tracklist:
01 - Blue Light
02 - Caravan
03 - Reminiscing
04 - Yesterdays
05 - Gee Blues Gee
06 - A Night In Tunisia
07 - Dearly Beloved
08 - Take The ''A'' Train

Exact Audio Copy V1.0 beta 4 from 7. December 2014

EAC extraction logfile from 18. June 2015, 7:52

Gigi Gryce Orch-tete / Reminiscin'

Used drive : ATAPI iHAS124 B Adapter: 1 ID: 0

Read mode : Secure
Utilize accurate stream : Yes
Defeat audio cache : Yes
Make use of C2 pointers : No

Read offset correction

: 6
Overread into Lead-In and Lead-Out : No
Fill up missing offset samples with silence : Yes
Delete leading and trailing silent blocks : No
Null samples used in CRC calculations : Yes
Used interface
: Native Win32 interface for Win NT & 2000
Gap handling
: Appended to previous track

Used output format : User Defined Encoder
Selected bitrate : 1024 kBit/s
Quality : High
Add ID3 tag : No
Command line compressor : C:\Program Files (x86)\FLAC Frontend\tools\flac.exe
Additional command line options : -8 -V -T "ARTIST=%artist%" -T "TITLE=%title%" -T "ALBUM=%albumtitle%" -T "DATE=%year%" -T "TRACKNUMBER=%tracknr%" -T "TOTALTRACKS=%numtracks%" -T "GENRE=%genre%" -T "ALBUMARTIST=%albumartist%" -T "ALBUM ARTIST=%albumartist%" -T "COMMENT=EAC Secure Mode, Test & Copy, AccurateRip, FLAC -8" %source%

TOC of the extracted CD Track | Start | Length | Start sector | End sector
--1 | 0:00.00 | 3:25.58 | 0 | 15432 2 | 3:25.58 | 4:25.70 | 15433 | 35377 3 | 7:51.53 | 4:00.57 | 35378 | 53434 4 | 11:52.35 | 4:46.29 | 53435 | 74913 5 | 16:38.64 | 3:21.27 | 74914 | 90015 6 | 20:00.16 | 5:13.08 | 90016 | 113498 7 | 25:13.24 | 4:20.27 | 113499 | 133025 8 | 29:33.51 | 3:35.34 | 133026 | 149184

Track 1 Filename D:\_EAC\Gigi Gryce Orch-tete - Reminiscin' (1960) [FLAC] {2012 Japan Jazz The Best Series 24-bit Remaster}\01 - Blue Light.wav Pre-gap length 0:00:02.00 Peak level 86.1 %
Extraction speed 3.3 X
Track quality 100.0 %
Test CRC FB73A2E6
Copy CRC FB73A2E6
Accurately ripped (confidence 2) [22D152C7] (AR v2)
Copy OK

Track 2 Filename D:\_EAC\Gigi Gryce Orch-tete - Reminiscin' (1960) [FLAC] {2012 Japan Jazz The Best Series 24-bit Remaster}\02 - Caravan.wav Pre-gap length 0:00:01.34 Peak level 80.8 %
Extraction speed 3.1 X
Track quality 99.9 %
Test CRC 44F8500A
Copy CRC 44F8500A
Accurately ripped (confidence 2) [05069830] (AR v2)
Copy OK

Track 3 Filename D:\_EAC\Gigi Gryce Orch-tete - Reminiscin' (1960) [FLAC] {2012 Japan Jazz The Best Series 24-bit Remaster}\03 - Reminiscing.wav Pre-gap length 0:00:01.35 Peak level 96.9 %
Extraction speed 4.1 X
Track quality 100.0 %
Test CRC 4E356CD6
Copy CRC 4E356CD6
Accurately ripped (confidence 2) [5F4460CA] (AR v2)
Copy OK

Track 4 Filename D:\_EAC\Gigi Gryce Orch-tete - Reminiscin' (1960) [FLAC] {2012 Japan Jazz The Best Series 24-bit Remaster}\04 - Yesterdays.wav Pre-gap length 0:00:01.36 Peak level 100.0 %
Extraction speed 4.6 X
Track quality 100.0 %
Test CRC DA32E3E2
Copy CRC DA32E3E2
Accurately ripped (confidence 2) [D4D4627D] (AR v2)
Copy OK

Track 5 Filename D:\_EAC\Gigi Gryce Orch-tete - Reminiscin' (1960) [FLAC] {2012 Japan Jazz The Best Series 24-bit Remaster}\05 - Gee Blues Gee.wav Pre-gap length 0:00:01.34 Peak level 99.3 %
Extraction speed 4.6 X
Track quality 100.0 %
Test CRC 66CA70DA
Copy CRC 66CA70DA
Accurately ripped (confidence 2) [CCB02F86] (AR v2)
Copy OK

Track 6 Filename D:\_EAC\Gigi Gryce Orch-tete - Reminiscin' (1960) [FLAC] {2012 Japan Jazz The Best Series 24-bit Remaster}\06 - A Night In Tunisia.wav Pre-gap length 0:00:01.34 Peak level 100.0 %
Extraction speed 5.2 X
Track quality 100.0 %
Test CRC C92C9E5F
Copy CRC C92C9E5F
Accurately ripped (confidence 2) [25436C4E] (AR v2)
Copy OK

Track 7 Filename D:\_EAC\Gigi Gryce Orch-tete - Reminiscin' (1960) [FLAC] {2012 Japan Jazz The Best Series 24-bit Remaster}\07 - Dearly Beloved.wav Pre-gap length 0:00:01.37 Peak level 100.0 %
Extraction speed 5.4 X
Track quality 100.0 %
Test CRC 2026B957
Copy CRC 2026B957
Accurately ripped (confidence 2) [4F16B3C9] (AR v2)
Copy OK

Track 8 Filename D:\_EAC\Gigi Gryce Orch-tete - Reminiscin' (1960) [FLAC] {2012 Japan Jazz The Best Series 24-bit Remaster}\08 - Take The ''A'' Train.wav Pre-gap length 0:00:01.36 Peak level 95.8 %
Extraction speed 4.3 X
Track quality 99.9 %
Test CRC 1306C301
Copy CRC 1306C301
Accurately ripped (confidence 2) [C242F589] (AR v2)
Copy OK

All tracks accurately ripped

No errors occurred

End of status report

==== Log checksum B29788D05AF12B5C45EF5628565313D95DC9B3279275E96EC05CE4B4CDD21B1D ====

Gigi Gryce Orch-tete - Reminiscin' (1960) {2013 Japan Jazz The Best Series 24-bit Remaster}

Gigi Gryce Orch-tete - Reminiscin' (1960) {2013 Japan Jazz The Best Series 24-bit Remaster}

DOWNLOAD
(Premium Recommended)


All above links are interchangable. No password

Direct Download

Tags: Reminiscin, Series, Remaster

Gigi Gryce Orch-tete - Reminiscin' (1960) {2013 Japan Jazz The Best Series 24-bit Remaster} Download via Hotfile Rapidshare Fileserve Megaupload & FileSonic, Gigi Gryce Orch-tete - Reminiscin' (1960) {2013 Japan Jazz The Best Series 24-bit Remaster} free torrent downloads included crack, serial, keygen.


Attention!Information

Members of Guest cannot leave comments.