Kazumi Watanabe - The Spice Of Life (1987) {Domo Japan} [Re-Up]

Download Now

Kazumi Watanabe - The Spice Of Life (1987) {Domo Japan} [Re-Up]

Kazumi Watanabe - The Spice Of Life (1987) {Domo Japan}
EAC 0.99pb5 | FLAC Image | Cue+Log | Full Scans 300dpi | 283MB + 5% Recovery
Genre: Fusion

"Kazumi Watanabe has for the past 20 years been one of the top guitarists in fusion, a rock-oriented player whose furious power does not mask a creative imagination. Watanabe studied guitar at Tokyo's Yamaha Music School and he was a recording artist while still a teenager. In 1979, he formed the group Kylyn and, in 1983, he put together the Mobo band. Several of his recordings have been made available by Gramavision and they show that he ranks up with Al DiMeola (when he is electrified) and Scott Henderson among the pacesetters in the idiom."

Track List
01. Melancho 3:27
02. Hiper K 5:38
03. City 4:27
04. Period 6:37
05. Unt 5:48
06. Na Starovia 4:43
07. Lim-Poo 4:49
08. J. F. K. 4:54
09. Rage In 6:20

musicians
Kazumi Watanabe - guitars, guitar synthesizer
Bill Bruford - electronic drums ,drums, percussion
Jeff Berlin - bass

Produced by Kazumi Watanabe & Akira Yada

Exact Audio Copy V0.99 prebeta 5 from 4. May 2009

EAC extraction logfile from 30. September 2010, 18:14

KAZUMI WATANABE / The Spice Of Life

Used drive : TSSTcorpDVD+-RW TS-U633A Adapter: 0 ID: 1

Read mode : Secure
Utilize accurate stream : Yes
Defeat audio cache : Yes
Make use of C2 pointers : No

Read offset correction

: 6
Overread into Lead-In and Lead-Out : No
Fill up missing offset samples with silence : Yes
Delete leading and trailing silent blocks : No
Null samples used in CRC calculations : Yes
Used interface
: Native Win32 interface for Win NT & 2000

Used output format : Internal WAV Routines
Sample format : 44.100 Hz; 16 Bit; Stereo

TOC of the extracted CD Track | Start | Length | Start sector | End sector
--1 | 0:00.00 | 3:29.37 | 0 | 15711 2 | 3:29.37 | 5:38.00 | 15712 | 41061 3 | 9:07.37 | 4:29.00 | 41062 | 61236 4 | 13:36.37 | 6:38.38 | 61237 | 91124 5 | 20:15.00 | 5:48.00 | 91125 | 117224 6 | 26:03.00 | 4:43.37 | 117225 | 138486 7 | 30:46.37 | 4:51.00 | 138487 | 160311 8 | 35:37.37 | 4:55.38 | 160312 | 182474 9 | 40:33.00 | 6:18.37 | 182475 | 210861

Range status and errors

Selected range Filename C:\_Arc\EAC_Out\KAZUMI WATANABE - The Spice Of Life\KAZUMI WATANABE - The Spice Of Life.wav Peak level 90.8 %
Range quality 100.0 %
Copy CRC EF4A32FF
Copy OK

No errors occurred


AccurateRip summary

Track 1 not present in database
Track 2 not present in database
Track 3 not present in database
Track 4 not present in database
Track 5 not present in database
Track 6 not present in database
Track 7 not present in database
Track 8 not present in database
Track 9 not present in database

None of the tracks are present in the AccurateRip database

End of status report

Analyzed: Kazumi Watanabe / The Spice Of Life

DR Peak RMS Duration Track

DR16 -0.83 dB -20.00 dB 3:29 01-Melancho
DR14 -2.88 dB -18.41 dB 5:38 02-Hiper K
DR16 -2.56 dB -21.33 dB 4:29 03-City
DR15 -2.25 dB -20.14 dB 6:39 04-Period
DR15 -3.80 dB -20.91 dB 5:48 05-Unt
DR12 -3.37 dB -20.04 dB 4:43 06-Na Starovia
DR14 -3.62 dB -19.53 dB 4:51 07-Lim-Poo
DR14 -2.79 dB -19.35 dB 4:56 08-J.F.K.
DR15 -2.03 dB -19.97 dB 6:18 09-Rage In

Number of tracks: 9
Official DR value: DR14

Samplerate: 44100 Hz
Channels: 2
Bits per sample: 16
Bitrate: 827 kbps
Codec: FLAC

Kazumi Watanabe - The Spice Of Life (1987) {Domo Japan} [Re-Up]

Kazumi Watanabe - The Spice Of Life (1987) {Domo Japan} [Re-Up]

Kazumi Watanabe - The Spice Of Life (1987) {Domo Japan} [Re-Up]



(All below links are interchangable. No password)
Buy Premium To Support Me & Get Resumable Support & Max Speed


Direct Download

Tags: Kazumi, Watanabe

Kazumi Watanabe - The Spice Of Life (1987) {Domo Japan} [Re-Up] Download via Hotfile Rapidshare Fileserve Megaupload & FileSonic, Kazumi Watanabe - The Spice Of Life (1987) {Domo Japan} [Re-Up] free torrent downloads included crack, serial, keygen.


Attention!Information

Members of Guest cannot leave comments.