The Dooleys - The Singles Collection (2005) [Japan, MHCP 701]

Download Now

The Dooleys - The Singles Collection (2005) [Japan, MHCP 701]

The Dooleys - The Singles Collection (2005)
EAC Rip | FLAC (Img) + Cue + Log ~ 560 Mb | MP3 CBR320 ~ 192 Mb
Scans Included (JPG, 300 dpi) | RAR 5% Recovery
Pop, Disco | Sony Music #MHCP 701

"The Dooleys were a United Kingdom male-female pop group comprising at its peak eight members-six of them in the Dooley family. The group achieved several UK chart hits between 1977 and 1981, including top-ten hits "Wanted", "Love of My Life" and "The Chosen Few". This cd covers the succesful years between 1977 and 82 and features 23 of their recordings for GTO Records, a label which also released records by Billy Ocean and Donna Summer at the time. Most of the songs are written and produced by the Ben Findon / Mike Myers and Bob Puzey team who also wrote for Billy Ocean..."

The Dooleys - The Singles Collection (2005) [Japan, MHCP 701]

Wiki | Discogs | All Music
***************

The Dooleys - The Singles Collection (2005) [Japan, MHCP 701]

Track List:

01. Wanted [03:44]
02. Stone Walls [03:05]
03. Body Language [03:01]
04. I Spy [03:06]
05. The Dancer [03:04]
06. Tokyo Feeling [03:32]
07. Will You or Wan't You [03:10]
08. Movie Stars (And Comic Book Heroes) [03:45]
09. Love of My Life [03:09]
10. Forever [03:23]
11. Meet Me Halfway [04:12]
12. In a Riddle [03:19]
13. Secrets [04:07]
14. Think I'm Gonna Fall in Love With You [03:07]
15. Don't Take It Lyin' Down [03:26]
16. A Rose Has to Die [02:45]
17. Honey I'm Lost [03:05]
18. The Chosen Few [03:09]
19. Love Patrol [02:41]
20. Taken at the Flood [04:04]
21. Operator [03:05]
22. What You Got [03:36]
23. Don't Let Me Be the Last to Know [03:40]

Exact Audio Copy V1.0 beta 4 from 7. December 2014

Отчёт EAC об извлечении, выполненном 1. июля 2015, 8:05

The Dooleys / The Singles Collection

Дисковод: ASUS DRW-24F1ST a Adapter: 1 ID: 0

Режим чтения : Достоверность
Использование точного потока : Да
Отключение кэша аудио : Да
Использование указателей C2 : Нет

Коррекция смещения при чтении : 6
Способность читать области Lead-in и Lead-out : Нет
Заполнение пропущенных сэмплов тишиной : Да
Удаление блоков с тишиной в начале и конце : Нет
При вычислениях CRC использовались нулевые сэмплы : Да
Интерфейс : Встроенный Win32-интерфейс для Win NT/2000

Выходной формат : Пользовательский кодировщик
Выбранный битрейт : 128 kBit/s
Качество : Высокий
Добавление ID3-тега : Нет
Утилита сжатия : C:\Program Files\Exact Audio Copy\Flac\flac.exe
Дополнительные параметры : -V -8 -T "Date=%year%" -T "Genre=%genre%" %source%

TOC извлечённого CD Трек | Старт | Длительность | Начальный сектор | Конечный сектор

1 | 0:00.00 | 3:43.65 | 0 | 16789
2 | 3:43.65 | 3:04.57 | 16790 | 30646
3 | 6:48.47 | 3:00.73 | 30647 | 44219
4 | 9:49.45 | 3:06.00 | 44220 | 58169
5 | 12:55.45 | 3:03.62 | 58170 | 71956
6 | 15:59.32 | 3:31.48 | 71957 | 87829
7 | 19:31.05 | 3:09.27 | 87830 | 102031
8 | 22:40.32 | 3:44.11 | 102032 | 118842
9 | 26:24.43 | 3:08.22 | 118843 | 132964
10 | 29:32.65 | 3:22.33 | 132965 | 148147
11 | 32:55.23 | 4:11.47 | 148148 | 167019
12 | 37:06.70 | 3:18.63 | 167020 | 181932
13 | 40:25.58 | 4:06.35 | 181933 | 200417
14 | 44:32.18 | 3:06.60 | 200418 | 214427
15 | 47:39.03 | 3:25.52 | 214428 | 229854
16 | 51:04.55 | 2:44.55 | 229855 | 242209
17 | 53:49.35 | 3:04.55 | 242210 | 256064
18 | 56:54.15 | 3:08.18 | 256065 | 270182
19 | 60:02.33 | 2:40.72 | 270183 | 282254
20 | 62:43.30 | 4:03.18 | 282255 | 300497
21 | 66:46.48 | 3:04.50 | 300498 | 314347
22 | 69:51.23 | 3:35.35 | 314348 | 330507
23 | 73:26.58 | 3:39.57 | 330508 | 346989

Характеристики диапазона извлечения и сообщения об ошибках

Выбранный диапазон Имя файла C:\Users\Erik\Desktop\The Dooleys - The Singles Collection.wav Пиковый уровень 100.0 %
Скорость извлечения 8.2 X
Качество диапазона 100.0 %
CRC теста D7889E37
CRC копии D7889E37
Копирование... OK

Ошибок не произошло


AccurateRip: сводка

Трек 1 : извлечено точно (доверие 4) [94800E72] (AR v2)
Трек 2 : извлечено точно (доверие 4) [FB0CF509] (AR v2)
Трек 3 : извлечено точно (доверие 4) [ED0E6272] (AR v2)
Трек 4 : извлечено точно (доверие 4) [5E11A2CD] (AR v2)
Трек 5 : извлечено точно (доверие 4) [75214940] (AR v2)
Трек 6 : извлечено точно (доверие 4) [7C82650F] (AR v2)
Трек 7 : извлечено точно (доверие 4) [E9954361] (AR v2)
Трек 8 : извлечено точно (доверие 4) [DB3FC718] (AR v2)
Трек 9 : извлечено точно (доверие 4) [1EA5FA31] (AR v2)
Трек 10 : извлечено точно (доверие 4) [38888D09] (AR v2)
Трек 11 : извлечено точно (доверие 4) [7A125B52] (AR v2)
Трек 12 : извлечено точно (доверие 4) [F51083FA] (AR v2)
Трек 13 : извлечено точно (доверие 4) [033F1D46] (AR v2)
Трек 14 : извлечено точно (доверие 4) [E6120BEB] (AR v2)
Трек 15 : извлечено точно (доверие 4) [F18A9291] (AR v2)
Трек 16 : извлечено точно (доверие 4) [5F3510BC] (AR v2)
Трек 17 : извлечено точно (доверие 4) [4E2614B1] (AR v2)
Трек 18 : извлечено точно (доверие 4) [C053B1C7] (AR v2)
Трек 19 : извлечено точно (доверие 4) [687C2A32] (AR v2)
Трек 20 : извлечено точно (доверие 4) [4315EF10] (AR v2)
Трек 21 : извлечено точно (доверие 4) [ABE60EDD] (AR v2)
Трек 22 : извлечено точно (доверие 4) EC696DC (AR v2)
Трек 23 : извлечено точно (доверие 4) [8B7C8365] (AR v2)

Все треки извлечены точно

Конец отчёта

- CUETools DB Plugin V2.1.4

[CTDB TOCID: 2MRyw8cYbsH29H7BDEsm0wTczLQ-] disk not present in database
Submit result: 2MRyw8cYbsH29H7BDEsm0wTczLQ- has been uploaded

foobar2000 1.2.6 / Dynamic Range Meter 1.1.1
log date: 2015-07-01 16:26:11

Analyzed: The Dooleys / The Singles Collection

DR Peak RMS Duration Track

DR9 0.00 dB -10.11 dB 3:44 01-Wanted
DR10 0.00 dB -10.74 dB 3:05 02-Stone Walls
DR9 0.00 dB -10.71 dB 3:01 03-Body Language
DR10 0.00 dB -11.68 dB 3:06 04-I Spy
DR9 0.00 dB -10.67 dB 3:04 05-The Dancer
DR9 0.00 dB -11.07 dB 3:32 06-Tokyo Feeling
DR9 0.00 dB -10.21 dB 3:09 07-Will You or Wan't You
DR11 0.00 dB -12.77 dB 3:44 08-Movie Stars (And Comic Book Heroes)
DR10 -0.20 dB -10.94 dB 3:08 09-Love of My Life
DR10 -0.30 dB -12.88 dB 3:22 10-Forever
DR12 0.00 dB -13.77 dB 4:12 11-Meet Me Halfway
DR9 0.00 dB -11.69 dB 3:19 12-In a Riddle
DR8 -0.20 dB -11.23 dB 4:06 13-Secrets
DR11 0.00 dB -11.59 dB 3:07 14-Think I'm Gonna Fall in Love With You
DR9 0.00 dB -10.71 dB 3:26 15-Don't Take It Lyin' Down
DR10 0.00 dB -11.44 dB 2:45 16-A Rose Has to Die
DR9 -0.20 dB -10.05 dB 3:05 17-Honey I'm Lost
DR9 0.00 dB -10.41 dB 3:08 18-The Chosen Few
DR9 0.00 dB -10.82 dB 2:41 19-Love Patrol
DR9 0.00 dB -11.49 dB 4:03 20-Taken at the Flood
DR9 0.00 dB -10.60 dB 3:05 21-Operator
DR9 0.00 dB -10.70 dB 3:35 22-What You Got
DR9 -0.30 dB -11.07 dB 3:40 23-Don't Let Me Be the Last to Know

Number of tracks: 23
Official DR value: DR9

Samplerate: 44100 Hz
Channels: 2
Bits per sample: 16
Bitrate: 956 kbps
Codec: FLAC

[CUETools log; Date: 01.07.2015 16:26:15; Version: 2.1.5]
[CTDB TOCID: 2MRyw8cYbsH29H7BDEsm0wTczLQ-] found.
Track | CTDB Status
1 | (1/1) Accurately ripped
2 | (1/1) Accurately ripped
3 | (1/1) Accurately ripped
4 | (1/1) Accurately ripped
5 | (1/1) Accurately ripped
6 | (1/1) Accurately ripped
7 | (1/1) Accurately ripped
8 | (1/1) Accurately ripped
9 | (1/1) Accurately ripped
10 | (1/1) Accurately ripped
11 | (1/1) Accurately ripped
12 | (1/1) Accurately ripped
13 | (1/1) Accurately ripped
14 | (1/1) Accurately ripped
15 | (1/1) Accurately ripped
16 | (1/1) Accurately ripped
17 | (1/1) Accurately ripped
18 | (1/1) Accurately ripped
19 | (1/1) Accurately ripped
20 | (1/1) Accurately ripped
21 | (1/1) Accurately ripped
22 | (1/1) Accurately ripped
23 | (1/1) Accurately ripped
[AccurateRip ID: 003f4c59-04202391-52121217] found.
Track [ CRC | V2 ] Status
01 [9e625cf8|94800e72] (0+4/4) Accurately ripped
02 [68110921|fb0cf509] (0+4/4) Accurately ripped
03 [aa73ad67|ed0e6272] (0+4/4) Accurately ripped
04 [ae2cf744|5e11a2cd] (0+4/4) Accurately ripped
05 [041329e2|75214940] (0+4/4) Accurately ripped
06 [c7150d66|7c82650f] (0+4/4) Accurately ripped
07 154062d|e9954361 (0+4/4) Accurately ripped
08 [ea938df1|db3fc718] (0+4/4) Accurately ripped
09 [39ec44e7|1ea5fa31] (0+4/4) Accurately ripped
10 [2a6a470b|38888d09] (0+4/4) Accurately ripped
11 [3f664312|7a125b52] (0+4/4) Accurately ripped
12 [8f89e44d|f51083fa] (0+4/4) Accurately ripped
13 [a11f59b1|033f1d46] (0+4/4) Accurately ripped
14 7813917|e6120beb (0+4/4) Accurately ripped
15 [c6ed5200|f18a9291] (0+4/4) Accurately ripped
16 [66a236b8|5f3510bc] (0+4/4) Accurately ripped
17 [a669fe64|4e2614b1] (0+4/4) Accurately ripped
18 [456f69fa|c053b1c7] (0+4/4) Accurately ripped
19 [e804f190|687c2a32] (0+4/4) Accurately ripped
20 [e9565895|4315ef10] (0+4/4) Accurately ripped
21 [3db10839|abe60edd] (0+4/4) Accurately ripped
22 [78c04521|bec696dc] (0+4/4) Accurately ripped
23 [d1813dd5|8b7c8365] (0+4/4) Accurately ripped

Track Peak [ CRC32 ] [W/O NULL] [ LOG ]
-- 99,9 [D7889E37] [495CAF71] CRC32
01 99,9 [6F789243] [2587CA3F]
02 99,9 [3E41351C] [0579DC7A]
03 99,9 [DE774539] [3E9B5584]
04 99,9 D56FC94 [A5E0C92E]
05 99,9 [02E259A3] [56E055AC]
06 99,9 [5609FDFF] [EC70B649]
07 99,9 [EC262C3A] 713ED27
08 99,9 [9A10B8CC] [E9F29347]
09 97,7 [F5C439DF] [7F5C6ABA]
10 96,5 EE4240F [2F6BEFB6]
11 99,9 [CBF1BE78] [0DA2EA81]
12 99,9 [393F4040] [D69B5C6E]
13 97,7 [7A02FAA3] [E735E070]
14 99,9 [05AC33A8] [F5D411BA]
15 99,9 [6D4B3351] [F2A44229]
16 99,9 [80FA14EA] [6719F869]
17 97,7 [E8D8D57E] 0B6D690
18 99,9 [C4F36A14] [DFCC979C]
19 99,9 [E2173A2C] 5779B31
20 99,9 [DA0BD96D] [81BB4037]
21 99,9 [858C9F2C] [A27F254A]
22 99,9 [4AF3C956] [697D7F99]
23 96,5 [877AFB62] 45FD3D6

The Dooleys - The Singles Collection (2005) [Japan, MHCP 701]

All thanks go to ernesto


DOWNLOAD LINKS
(Premium Recommended)


Links are Interchangeable - No Password - Single Extraction

Direct Download

Tags: Dooleys, Singles, Collection

The Dooleys - The Singles Collection (2005) [Japan, MHCP 701] Download via Hotfile Rapidshare Fileserve Megaupload & FileSonic, The Dooleys - The Singles Collection (2005) [Japan, MHCP 701] free torrent downloads included crack, serial, keygen.


Attention!Information

Members of Guest cannot leave comments.