Virgin Steele - Nocturnes Of Hellfire & Damnation (2015) [Ltd. Ed. Digipak, 2CD]

Download Now

Virgin Steele - Nocturnes Of Hellfire & Damnation (2015) [Ltd. Ed. Digipak, 2CD]

Virgin Steele - Nocturnes Of Hellfire & Damnation (2015) [Ltd. Ed. Digipak, 2CD]
EAC Rip | FLAC: Image+Cue+Log | 1.14 Gb | MP3 CBR 320 kbps | 397 Mb | Scans | 56 Mb | TTime: 02:32:35
Genre: Heavy Metal, Epic/Power Metal | Label: SPV/Steamhammer | Cat.№: SPV 268260 2CD

"With the release of Visions Of Eden in 2006, Virgin Steele had changed direction, playing a somewhat gloomy and melancholic style of epic metal. The album was keyboard heavy with guitars taking a back-seat to the vocals and keys of David DeFeis. The Black Light Bacchanalia followed and offered the same style of music, but with guitars being far more prominent. Nocturnes Of Hellfire & Damnation comes 5 years after and changes things again. It is yet another great album to add to their already impressive discography."



Disc one

01. Lucifer's Hammer (05:41)
02. Queen Of The Dead (04:16)
03. To Darkness Eternal (00:57)
04. Black Sun - Black Mass (05:08)
05. Persephone (07:28)
06. Devilhead (05:22)
07. Demolition Queen (08:19)
08. The Plague And The Fire (06:29)
09. We Disappear (07:54)
10. A Damned Apparition (01:33)
11. Glamour (05:20)
12. Delirium (07:33)
13. Hymns To Damnation (06:55)
14. Fallen Angels (06:05)

Virgin Steele - Nocturnes Of Hellfire & Damnation (2015) [Ltd. Ed. Digipak, 2CD]


Disc two ''The Samhain Suite'' (Tracks 1 - 6)

01. Halloween Theme (01:20)
02. D.O.A. (07:49)
03. The Witch In The Forest (00:54)
04. Black Sabbath (06:15)
05. The Immigrant Song (01:16)
06. Black Sabbath ''Reprise'' (01:05)
07. Riderless Horse (Save Your Breath) (07:23)
08. The Devil Drives (07:01)
09. Anger Never Dies (06:12)
10. Funeral Games (07:27)
11. The Description Thickens (00:50)
12. Haunted Wolfshine (06:13)
13. West Of Sumer (07:52)
14. A Greater Burning Of Innocence (05:43)
15. The Birth Of Beauty (06:04)

Produced by David DeFeis

The Band

* David "The Lion/Young Zeus" DeFeis - Vocals, Keyboards
* Edward "Van Dorian" Pursino - Guitar
* Joshua "The Sorceror" Block - Bass Guitar
* Frank "The Animal/The Baron/The Kraken" Gilchriest - Drums

Exact Audio Copy V1.0 beta 3 from 29. August 2011

EAC extraction logfile from 1. July 2015, 19:04

Virgin Steele / Nocturnes Of Hellfire & Damnation

Used drive : ATAPI iHAS122 W Adapter: 2 ID: 0

Read mode : Secure
Utilize accurate stream : Yes
Defeat audio cache : Yes
Make use of C2 pointers : No

Read offset correction

: 48
Overread into Lead-In and Lead-Out : No
Fill up missing offset samples with silence : Yes
Delete leading and trailing silent blocks : No
Null samples used in CRC calculations : Yes
Used interface
: Installed external ASPI interface

Used output format : User Defined Encoder
Selected bitrate : 1024 kBit/s
Quality : High
Add ID3 tag : No
Command line compressor : C:\Program Files\FLAC\flac.exe
Additional command line options : -V -8 -T "Date=%year%" -T "Genre=%genre%" -T"COMMENT=Ripped by Ilijan" -8 -V %source%

TOC of the extracted CD Track | Start | Length | Start sector | End sector
--1 | 0:00.00 | 5:41.63 | 0 | 25637 2 | 5:41.63 | 4:16.22 | 25638 | 44859 3 | 9:58.10 | 0:57.48 | 44860 | 49182 4 | 10:55.58 | 5:08.41 | 49183 | 72323 5 | 16:04.24 | 7:28.35 | 72324 | 105958 6 | 23:32.59 | 5:22.30 | 105959 | 130138 7 | 28:55.14 | 8:19.52 | 130139 | 167615 8 | 37:14.66 | 6:29.18 | 167616 | 196808 9 | 43:44.09 | 7:54.28 | 196809 | 232386
10 | 51:38.37 | 1:33.00 | 232387 | 239361
11 | 53:11.37 | 5:19.71 | 239362 | 263357
12 | 58:31.33 | 7:33.47 | 263358 | 297379
13 | 66:05.05 | 6:55.18 | 297380 | 328522
14 | 73:00.23 | 6:05.12 | 328523 | 355909

Range status and errors

Selected range Filename D:\ИЛИЯН\Virgin Steele - Nocturnes Of Hellfire & Damnation.wav Peak level 100.0 %
Extraction speed 3.7 X
Range quality 100.0 %
Test CRC 085D6158
Copy CRC 085D6158
Copy OK

No errors occurred


AccurateRip summary

Track 1 not present in database
Track 2 not present in database
Track 3 not present in database
Track 4 not present in database
Track 5 not present in database
Track 6 not present in database
Track 7 not present in database
Track 8 not present in database
Track 9 not present in database
Track 10 not present in database
Track 11 not present in database
Track 12 not present in database
Track 13 not present in database
Track 14 not present in database

None of the tracks are present in the AccurateRip database

End of status report

- CUETools DB Plugin V2.1.3

[CTDB TOCID: 0VjbDigxAExFxuR6uG4v8bnqNlM-] found, Submit result: 0VjbDigxAExFxuR6uG4v8bnqNlM- has been confirmed
[4bf6a7a0] (3/3) Accurately ripped

==== Log checksum AB4AB9168E0D7387A14DB5C8B9B3668254749878F04B27C8E5E2A1506318FBAE ====

Exact Audio Copy V1.0 beta 3 from 29. August 2011

EAC extraction logfile from 1. July 2015, 19:45

Virgin Steele / Nocturnes of Hellfire & Damnation (Bonus CD)

Used drive : ATAPI iHAS122 W Adapter: 2 ID: 0

Read mode : Secure
Utilize accurate stream : Yes
Defeat audio cache : Yes
Make use of C2 pointers : No

Read offset correction

: 48
Overread into Lead-In and Lead-Out : No
Fill up missing offset samples with silence : Yes
Delete leading and trailing silent blocks : No
Null samples used in CRC calculations : Yes
Used interface
: Installed external ASPI interface

Used output format : User Defined Encoder
Selected bitrate : 1024 kBit/s
Quality : High
Add ID3 tag : No
Command line compressor : C:\Program Files\FLAC\flac.exe
Additional command line options : -V -8 -T "Date=%year%" -T "Genre=%genre%" -T"COMMENT=Ripped by Ilijan" -8 -V %source%

TOC of the extracted CD Track | Start | Length | Start sector | End sector
--1 | 0:00.00 | 1:20.23 | 0 | 6022 2 | 1:20.23 | 7:49.10 | 6023 | 41207 3 | 9:09.33 | 0:53.74 | 41208 | 45256 4 | 10:03.32 | 6:15.44 | 45257 | 73425 5 | 16:19.01 | 1:16.38 | 73426 | 79163 6 | 17:35.39 | 1:05.30 | 79164 | 84068 7 | 18:40.69 | 7:23.25 | 84069 | 117318 8 | 26:04.19 | 7:01.36 | 117319 | 148929 9 | 33:05.55 | 6:12.25 | 148930 | 176854
10 | 39:18.05 | 7:27.48 | 176855 | 210427
11 | 46:45.53 | 0:50.49 | 210428 | 214226
12 | 47:36.27 | 6:13.60 | 214227 | 242261
13 | 53:50.12 | 7:52.71 | 242262 | 277732
14 | 61:43.08 | 5:43.19 | 277733 | 303476
15 | 67:26.27 | 6:04.08 | 303477 | 330784

Range status and errors

Selected range Filename D:\ИЛИЯН\Virgin Steele - Nocturnes of Hellfire & Damnation (Bonus CD).wav Peak level 100.0 %
Extraction speed 4.4 X
Range quality 100.0 %
Test CRC 54EB69C0
Copy CRC 54EB69C0
Copy OK

No errors occurred


AccurateRip summary

Track 1 not present in database
Track 2 not present in database
Track 3 not present in database
Track 4 not present in database
Track 5 not present in database
Track 6 not present in database
Track 7 not present in database
Track 8 not present in database
Track 9 not present in database
Track 10 not present in database
Track 11 not present in database
Track 12 not present in database
Track 13 not present in database
Track 14 not present in database
Track 15 not present in database

None of the tracks are present in the AccurateRip database

End of status report

- CUETools DB Plugin V2.1.3

[CTDB TOCID: v320pL5.mZXP92Z0JSs8XFF8UpQ-] found, Submit result: v320pL5.mZXP92Z0JSs8XFF8UpQ- has been confirmed
[6d8a6346] (4/4) Accurately ripped

==== Log checksum 361721E34B4FE005E7BE8C6F6AA59395D93BBD18EFA0A3F50FEBF83D29AD01C9 ====

Many thanks to the original uploader: Ilijan
DOWNLOAD:
Buy Premium To Support Me & Get Resumable Support & Max Speed


Links are Interchangeable - No Password

Direct Download

Tags: Virgin, Steele, Nocturnes, Hellfire, Damnation, Digipak

Virgin Steele - Nocturnes Of Hellfire & Damnation (2015) [Ltd. Ed. Digipak, 2CD] Download via Hotfile Rapidshare Fileserve Megaupload & FileSonic, Virgin Steele - Nocturnes Of Hellfire & Damnation (2015) [Ltd. Ed. Digipak, 2CD] free torrent downloads included crack, serial, keygen.


Attention!Information

Members of Guest cannot leave comments.