Various Artists - Rock Me Gently - Australian Pop Of The 70's Vol. 4 [2CD] (2012)

Download Now

Various Artists - Rock Me Gently - Australian Pop Of The 70's Vol. 4 [2CD] (2012)

Various Artists - Rock Me Gently - Australian Pop Of The 70's Vol. 4 [2CD] (2012)
Pop, Pop/Rock, Soft Rock | EAC Rip | FLAC, Tracks+CUE + LOG + Artwork-600dpi (JPEG) | 63:30 + 72:38 Min | 1,04 Gb
Label: Sony Music Entertainment Australia Pty Ltd. (AU) | Released: 2012, January, 31

"
2012 two CD collection. The Australian Pop Series has become Australia's most comprehensive collection of heritage hit music ever issued on CD from our formative years, the 1960s, 1970s and 1980s. Again, like the earlier successful Volumes, this latest in the series is compiled by Brent James and features many quintessential Aussie hits and artists - many tracks highly sought after and in demand in recent years including some hits making their CD debut with all tracks selected from charts around Australia with the three decades represented again in this collection. Includes tracks from Air Supply, Flash & The Pan, Daddy Cool, Dragon, Mi-Sex, Rick Springfield, Sherbet, Skyhooks and many others.
"

Various Artists - Rock Me Gently - Australian Pop Of The 70's Vol. 4 [2CD] (2012)


Release of this 2CD Set: 2012, January, 31 [CD Sony Music Entertainment Australia Pty Ltd. (AU), Cat.# 88697966302 / EAN: 0886979663022]
This compilation © 2012 Sony Music Entertainment Australia Pty Ltd.
Distributed in Australia by Sony Music Entertainment Australia Pty Ltd.

Tracklist:

Disc One:

01. Sherbet - Rock Me Gently
02. Rick Springfield - Hooky Jo
03. Jon English - Get Your Love Right
04. Allison Gros - Naturally
05. The Bootleg Family Band - Your Mama Don't Dance
06. Mark Holden - Reach Out For The One Who Loves You
07. Vanda & Young - Lazy River
08. Dragon - April Sun In Cuba
09. Smacka Fitzgibbon - The Adventures Of Barry McKenzie
10. Ol'55 - Looking For An Echo
11. John Farnham With Allison Durbin - Baby Without You
12. Stevie Wright - Guitar Band
13. Drummond - Daddy Cool
14. Ted Mulry - Marcia
15. Skyhooks - Ego Is Not A Dirty Word
16. Healing Force - Golden Miles
17. Marcia Hines - What I Did For Love
18. Marty Rhone - Star Song
19. Jeff St John & Copperwine - Teach Me How To Fly
20. Jon Blanchfield - Lucy's Place

Disc Two:

01. Hush - Rough Tough 'N' Ready
02. Miss Linda George - Mama's Little Girl
03. Digby Richards - People Call Me Country
04. Mi-Sex - But You Don't Care
05. Ronnie Burns - Smiley
06. Hot City Bump Band - Do What You Wanna Do
07. Russell Morris - Sweet Sweet Love
08. Flash & The Pan - Down Among The Dead Men
09. Harry Young & Sabbath - The Wheat In The Field
10. S.C.R.A. - Roly Poly
11. Monalisa & Terry Young - I Wanna Make It With You Tonight
12. Carol Lloyd Band - All The Good Things
13. The Mixtures - The Pushbike Song
14. Greg Anderson - No Roses For Michael
15. Daryl Braitwaite - Cavalry
16. Air Supply - Do What You Do
17. Ted Mulry Gang - Crazy
18. Troupadours - By The Devil (I Was Tempted)
19. John Paul Young - Keep On Smilin'
20. Robin Jolley - Do You Wanna Boogie

Exact Audio Copy V1.0 beta 3 from 29. August 2011

EAC extraction logfile from 3. March 2015, 0:09

Various Artists / Australian Pop Of The 70's Vol 4 Rock Me Gently Disc 1

Used drive : HL-DT-STDVDRAM GH24NS90 Adapter: 1 ID: 0

Read mode : Secure
Utilize accurate stream : Yes
Defeat audio cache : No
Make use of C2 pointers : Yes

Read offset correction

: 6
Overread into Lead-In and Lead-Out : No
Fill up missing offset samples with silence : Yes
Delete leading and trailing silent blocks : No
Null samples used in CRC calculations : Yes
Used interface
: Native Win32 interface for Win NT & 2000
Gap handling
: Appended to previous track

Used output format : User Defined Encoder
Selected bitrate : 1024 kBit/s
Quality : High
Add ID3 tag : No
Command line compressor : C:\Program Files (x86)\FLAC\metaflac.exe
Additional command line options : -8

TOC of the extracted CD Track | Start | Length | Start sector | End sector
--1 | 0:00.00 | 3:39.53 | 0 | 16477 2 | 3:39.53 | 2:43.19 | 16478 | 28721 3 | 6:22.72 | 3:30.04 | 28722 | 44475 4 | 9:53.01 | 2:23.14 | 44476 | 55214 5 | 12:16.15 | 3:03.24 | 55215 | 68963 6 | 15:19.39 | 2:58.63 | 68964 | 82376 7 | 18:18.27 | 3:35.20 | 82377 | 98521 8 | 21:53.47 | 3:29.24 | 98522 | 114220 9 | 25:22.71 | 3:11.36 | 114221 | 128581
10 | 28:34.32 | 3:25.45 | 128582 | 144001
11 | 32:00.02 | 2:28.29 | 144002 | 155130
12 | 34:28.31 | 3:21.11 | 155131 | 170216
13 | 37:49.42 | 2:41.01 | 170217 | 182292
14 | 40:30.43 | 3:15.00 | 182293 | 196917
15 | 43:45.43 | 2:59.44 | 196918 | 210386
16 | 46:45.12 | 3:24.65 | 210387 | 225751
17 | 50:10.02 | 3:19.49 | 225752 | 240725
18 | 53:29.51 | 2:50.51 | 240726 | 253526
19 | 56:20.27 | 4:07.71 | 253527 | 272122
20 | 60:28.23 | 3:02.05 | 272123 | 285777

Track 1 Filename C:\Exact Audio Copy\01 Rock Me Gently - Sherbet.wav Pre-gap length 0:00:02.00 Peak level 100.0 %
Extraction speed 3.9 X
Track quality 100.0 %
Test CRC 6751FA9D
Copy CRC 6751FA9D
Accurately ripped (confidence 5) [8CC00CCE] (AR v2)
Copy OK

Track 2 Filename C:\Exact Audio Copy\02 Hooky Jo - Rick Springfield.wav Pre-gap length 0:00:01.74 Peak level 94.4 %
Extraction speed 4.5 X
Track quality 100.0 %
Test CRC 68CD6F01
Copy CRC 68CD6F01
Accurately ripped (confidence 5) [A5952E46] (AR v2)
Copy OK

Track 3 Filename C:\Exact Audio Copy\03 Get Your Love Right - Jon English.wav Pre-gap length 0:00:01.74 Peak level 97.7 %
Extraction speed 4.8 X
Track quality 100.0 %
Test CRC 547D1377
Copy CRC 547D1377
Accurately ripped (confidence 5) [7BBE11D3] (AR v2)
Copy OK

Track 4 Filename C:\Exact Audio Copy\04 Naturally - Allison Gros.wav Pre-gap length 0:00:01.74 Peak level 94.4 %
Extraction speed 5.1 X
Track quality 100.0 %
Test CRC 5BCFC860
Copy CRC 5BCFC860
Accurately ripped (confidence 5) [258115F9] (AR v2)
Copy OK

Track 5 Filename C:\Exact Audio Copy\05 Your Mama Don't Dance - The Bootleg Family Band.wav Pre-gap length 0:00:01.74 Peak level 100.0 %
Extraction speed 5.4 X
Track quality 100.0 %
Test CRC 09F33E29
Copy CRC 09F33E29
Accurately ripped (confidence 5) [DA57AC28] (AR v2)
Copy OK

Track 6 Filename C:\Exact Audio Copy\06 Reach Out For The One Who Loves You - Mark Holden.wav Pre-gap length 0:00:01.74 Peak level 100.0 %
Extraction speed 5.6 X
Track quality 100.0 %
Test CRC EF21E0A0
Copy CRC EF21E0A0
Accurately ripped (confidence 5) [3F5E3DCA] (AR v2)
Copy OK

Track 7 Filename C:\Exact Audio Copy\07 Lazy River - Vanda & Young.wav Pre-gap length 0:00:01.74 Peak level 97.7 %
Extraction speed 5.7 X
Track quality 100.0 %
Test CRC 67A8D6D7
Copy CRC 67A8D6D7
Accurately ripped (confidence 5) [9843152C] (AR v2)
Copy OK

Track 8 Filename C:\Exact Audio Copy\08 April Sun In Cuba - Dragon.wav Pre-gap length 0:00:01.74 Peak level 82.3 %
Extraction speed 5.9 X
Track quality 100.0 %
Test CRC 8A23D314
Copy CRC 8A23D314
Accurately ripped (confidence 5) [441367BB] (AR v2)
Copy OK

Track 9 Filename C:\Exact Audio Copy\09 The Adventures Of Barry McKenzie - Smacka Fitzgibbon.wav Pre-gap length 0:00:01.74 Peak level 98.7 %
Extraction speed 6.1 X
Track quality 100.0 %
Test CRC F7AAF691
Copy CRC F7AAF691
Accurately ripped (confidence 5) [1DF9F864] (AR v2)
Copy OK

Track 10 Filename C:\Exact Audio Copy\10 Looking For An Echo - Ol'55.wav Pre-gap length 0:00:01.74 Peak level 100.0 %
Extraction speed 6.7 X
Track quality 100.0 %
Test CRC C92DB072
Copy CRC C92DB072
Accurately ripped (confidence 5) [747EBC1C] (AR v2)
Copy OK

Track 11 Filename C:\Exact Audio Copy\11 Baby Without You - John Farnham & Allison Durban.wav Pre-gap length 0:00:01.74 Peak level 100.0 %
Extraction speed 6.2 X
Track quality 100.0 %
Test CRC 87AB01F8
Copy CRC 87AB01F8
Accurately ripped (confidence 5) [48CF844B] (AR v2)
Copy OK

Track 12 Filename C:\Exact Audio Copy\12 Guitar Band - Stevie Wright.wav Pre-gap length 0:00:01.74 Peak level 97.7 %
Extraction speed 7.1 X
Track quality 100.0 %
Test CRC FA762267
Copy CRC FA762267
Accurately ripped (confidence 5) [908A34B6] (AR v2)
Copy OK

Track 13 Filename C:\Exact Audio Copy\13 Daddy Cool - Drummond.wav Pre-gap length 0:00:01.74 Peak level 100.0 %
Extraction speed 7.3 X
Track quality 100.0 %
Test CRC 59FF3375
Copy CRC 59FF3375
Accurately ripped (confidence 5) [E6C9C82B] (AR v2)
Copy OK

Track 14 Filename C:\Exact Audio Copy\14 Marcia - Ted Mulry.wav Pre-gap length 0:00:01.74 Peak level 97.7 %
Extraction speed 7.1 X
Track quality 99.8 %
Test CRC 938F99F4
Copy CRC 938F99F4
Accurately ripped (confidence 5) 27BB13B (AR v2)
Copy OK

Track 15 Filename C:\Exact Audio Copy\15 Ego Is Not A Dirty Word - Skyhooks.wav Pre-gap length 0:00:01.74 Peak level 100.0 %
Extraction speed 7.2 X
Track quality 100.0 %
Test CRC D5ED2DE0
Copy CRC D5ED2DE0
Accurately ripped (confidence 5) [92C4DEB3] (AR v2)
Copy OK

Track 16 Filename C:\Exact Audio Copy\16 Golden Miles - Healing Force.wav Pre-gap length 0:00:01.74 Peak level 98.7 %
Extraction speed 7.5 X
Track quality 99.8 %
Test CRC B5F3AF8D
Copy CRC B5F3AF8D
Accurately ripped (confidence 5) [52CC1255] (AR v2)
Copy OK

Track 17 Filename C:\Exact Audio Copy\17 What I Did For Love - Marcia Hines.wav Pre-gap length 0:00:02.00 Peak level 92.3 %
Extraction speed 7.6 X
Track quality 100.0 %
Test CRC DCAD71C6
Copy CRC DCAD71C6
Accurately ripped (confidence 5) [627ECB2C] (AR v2)
Copy OK

Track 18 Filename C:\Exact Audio Copy\18 Star Song - Marty Rhone.wav Pre-gap length 0:00:01.74 Peak level 98.8 %
Extraction speed 7.7 X
Track quality 100.0 %
Test CRC D7AF16EB
Copy CRC D7AF16EB
Accurately ripped (confidence 5) [1DF52D4A] (AR v2)
Copy OK

Track 19 Filename C:\Exact Audio Copy\19 Teach Me How To Fly - Jeff St John & Copperwine.wav Pre-gap length 0:00:01.74 Peak level 88.0 %
Extraction speed 8.1 X
Track quality 99.9 %
Test CRC 8EA24F85
Copy CRC 8EA24F85
Accurately ripped (confidence 5) [3135DFD2] (AR v2)
Copy OK

Track 20 Filename C:\Exact Audio Copy\20 Lucy's Place - Jon Blanchfield.wav Pre-gap length 0:00:01.74 Peak level 98.3 %
Extraction speed 8.6 X
Track quality 100.0 %
Test CRC 6BBF5B75
Copy CRC 6BBF5B75
Accurately ripped (confidence 5) [52F8C6FB] (AR v2)
Copy OK

All tracks accurately ripped

No errors occurred

End of status report

==== Log checksum 8486EDBA941384BBF2E4E1B1B8D2E6788BB9367A17CAC6B81EABCD6717235D57 ====

Exact Audio Copy V1.0 beta 3 from 29. August 2011

EAC extraction logfile from 3. March 2015, 0:40

Various Artists / Australian Pop Of The 70's Vol 4 Rock Me Gently Disc 2

Used drive : HL-DT-STDVDRAM GH24NS90 Adapter: 1 ID: 0

Read mode : Secure
Utilize accurate stream : Yes
Defeat audio cache : No
Make use of C2 pointers : Yes

Read offset correction

: 6
Overread into Lead-In and Lead-Out : No
Fill up missing offset samples with silence : Yes
Delete leading and trailing silent blocks : No
Null samples used in CRC calculations : Yes
Used interface
: Native Win32 interface for Win NT & 2000
Gap handling
: Appended to previous track

Used output format : User Defined Encoder
Selected bitrate : 1024 kBit/s
Quality : High
Add ID3 tag : No
Command line compressor : C:\Program Files (x86)\FLAC\metaflac.exe
Additional command line options : -8

TOC of the extracted CD Track | Start | Length | Start sector | End sector
--1 | 0:00.00 | 3:49.09 | 0 | 17183 2 | 3:49.09 | 3:40.34 | 17184 | 33717 3 | 7:29.43 | 3:30.60 | 33718 | 49527 4 | 11:00.28 | 4:33.04 | 49528 | 70006 5 | 15:33.32 | 3:30.05 | 70007 | 85761 6 | 19:03.37 | 3:30.60 | 85762 | 101571 7 | 22:34.22 | 4:28.58 | 101572 | 121729 8 | 27:03.05 | 4:49.17 | 121730 | 143421 9 | 31:52.22 | 3:14.63 | 143422 | 158034
10 | 35:07.10 | 3:18.07 | 158035 | 172891
11 | 38:25.17 | 3:38.74 | 172892 | 189315
12 | 42:04.16 | 4:04.18 | 189316 | 207633
13 | 46:08.34 | 2:32.44 | 207634 | 219077
14 | 48:41.03 | 3:53.58 | 219078 | 236610
15 | 52:34.61 | 3:36.01 | 236611 | 252811
16 | 56:10.62 | 3:46.21 | 252812 | 269782
17 | 59:57.08 | 3:27.40 | 269783 | 285347
18 | 63:24.48 | 2:58.33 | 285348 | 298730
19 | 66:23.06 | 2:59.57 | 298731 | 312212
20 | 69:22.63 | 3:15.68 | 312213 | 326905

Track 1 Filename C:\Exact Audio Copy\01 Rough Tough 'N' Ready - Hush.wav Pre-gap length 0:00:02.00 Peak level 86.1 %
Extraction speed 4.0 X
Track quality 99.9 %
Test CRC B60B41A0
Copy CRC B60B41A0
Accurately ripped (confidence 5) [C3311CB2] (AR v2)
Copy OK

Track 2 Filename C:\Exact Audio Copy\02 Mama's Little Girl - Miss Linda George.wav Pre-gap length 0:00:01.74 Peak level 100.0 %
Extraction speed 4.4 X
Track quality 100.0 %
Test CRC 778A40A7
Copy CRC 778A40A7
Accurately ripped (confidence 5) [E332994C] (AR v2)
Copy OK

Track 3 Filename C:\Exact Audio Copy\03 People Call Me Country - Digby Richards.wav Pre-gap length 0:00:01.74 Peak level 100.0 %
Extraction speed 4.8 X
Track quality 100.0 %
Test CRC 31847B94
Copy CRC 31847B94
Accurately ripped (confidence 5) [D0644442] (AR v2)
Copy OK

Track 4 Filename C:\Exact Audio Copy\04 But You Don't Care - Mi-Sex.wav Pre-gap length 0:00:01.74 Peak level 100.0 %
Extraction speed 5.1 X
Track quality 100.0 %
Test CRC A4763BBE
Copy CRC A4763BBE
Accurately ripped (confidence 5) 9CE000C (AR v2)
Copy OK

Track 5 Filename C:\Exact Audio Copy\05 Smiley - Ronnie Burns.wav Pre-gap length 0:00:01.74 Peak level 100.0 %
Extraction speed 5.6 X
Track quality 100.0 %
Test CRC DCAB3420
Copy CRC DCAB3420
Accurately ripped (confidence 5) 081A868 (AR v2)
Copy OK

Track 6 Filename C:\Exact Audio Copy\06 Do What You Wanna Do - Hot City Bump Band.wav Pre-gap length 0:00:01.74 Peak level 97.7 %
Extraction speed 5.7 X
Track quality 100.0 %
Test CRC 7FE442D6
Copy CRC 7FE442D6
Accurately ripped (confidence 5) 9C653D9 (AR v2)
Copy OK

Track 7 Filename C:\Exact Audio Copy\07 Sweet Sweet Love - Russell Morris.wav Pre-gap length 0:00:01.74 Peak level 84.1 %
Extraction speed 6.0 X
Track quality 100.0 %
Test CRC C7506AD2
Copy CRC C7506AD2
Accurately ripped (confidence 5) [AC40AA7F] (AR v2)
Copy OK

Track 8 Filename C:\Exact Audio Copy\08 Down Among The Dead Men - Flash & The Pan.wav Pre-gap length 0:00:01.74 Peak level 100.0 %
Extraction speed 6.4 X
Track quality 100.0 %
Test CRC 440DD8D5
Copy CRC 440DD8D5
Accurately ripped (confidence 5) [98912E99] (AR v2)
Copy OK

Track 9 Filename C:\Exact Audio Copy\09 The Wheat In The Field - Harry Young & Sabbath.wav Pre-gap length 0:00:01.74 Peak level 98.8 %
Extraction speed 6.8 X
Track quality 100.0 %
Test CRC 6BAC6217
Copy CRC 6BAC6217
Accurately ripped (confidence 5) [82582A4D] (AR v2)
Copy OK

Track 10 Filename C:\Exact Audio Copy\10 Roly Poly - S.C.R.A..wav Pre-gap length 0:00:01.74 Peak level 85.4 %
Extraction speed 6.7 X
Track quality 100.0 %
Test CRC B9D512D7
Copy CRC B9D512D7
Accurately ripped (confidence 5) [2730CB67] (AR v2)
Copy OK

Track 11 Filename C:\Exact Audio Copy\11 I Wanna Make It With You Tonight - Monalisa & Terry Young.wav Pre-gap length 0:00:01.74 Peak level 100.0 %
Extraction speed 7.3 X
Track quality 100.0 %
Test CRC FA3D5498
Copy CRC FA3D5498
Accurately ripped (confidence 5) [8661DCA9] (AR v2)
Copy OK

Track 12 Filename C:\Exact Audio Copy\12 All The Good Things - Carol Lloyd Band.wav Pre-gap length 0:00:01.74 Peak level 100.0 %
Extraction speed 7.2 X
Track quality 100.0 %
Test CRC 431C4C52
Copy CRC 431C4C52
Accurately ripped (confidence 5) [AA39D9FA] (AR v2)
Copy OK

Track 13 Filename C:\Exact Audio Copy\13 The Pushbike Song - The Mixtures.wav Pre-gap length 0:00:01.74 Peak level 100.0 %
Extraction speed 7.2 X
Track quality 100.0 %
Test CRC DE025865
Copy CRC DE025865
Accurately ripped (confidence 5) [CD2BD321] (AR v2)
Copy OK

Track 14 Filename C:\Exact Audio Copy\14 No Roses For Michael - Greg Anderson.wav Pre-gap length 0:00:01.74 Peak level 96.6 %
Extraction speed 7.6 X
Track quality 100.0 %
Test CRC 075D0AA6
Copy CRC 075D0AA6
Accurately ripped (confidence 5) [E53ABB1E] (AR v2)
Copy OK

Track 15 Filename C:\Exact Audio Copy\15 Cavalry - Daryl Braithwaite.wav Pre-gap length 0:00:01.74 Peak level 100.0 %
Extraction speed 7.7 X
Track quality 100.0 %
Test CRC 807FD06F
Copy CRC 807FD06F
Accurately ripped (confidence 5) [134F0D20] (AR v2)
Copy OK

Track 16 Filename C:\Exact Audio Copy\16 Do What You Do - Air Supply.wav Pre-gap length 0:00:01.74 Peak level 100.0 %
Extraction speed 8.3 X
Track quality 100.0 %
Test CRC 3EAD7A97
Copy CRC 3EAD7A97
Accurately ripped (confidence 5) [C38ABF0B] (AR v2)
Copy OK

Track 17 Filename C:\Exact Audio Copy\17 Crazy - Ted Mulry Gang.wav Pre-gap length 0:00:01.74 Peak level 100.0 %
Extraction speed 8.5 X
Track quality 100.0 %
Test CRC 89C9E7F3
Copy CRC 89C9E7F3
Accurately ripped (confidence 5) [2ECAE8F0] (AR v2)
Copy OK

Track 18 Filename C:\Exact Audio Copy\18 By The Devil (I Was Tempted) - Troupadours.wav Pre-gap length 0:00:01.74 Peak level 92.6 %
Extraction speed 8.1 X
Track quality 99.8 %
Test CRC FDB8AEE2
Copy CRC FDB8AEE2
Accurately ripped (confidence 5) [9F652714] (AR v2)
Copy OK

Track 19 Filename C:\Exact Audio Copy\19 Keep On Smilin' - John Paul Young.wav Pre-gap length 0:00:01.74 Peak level 92.2 %
Extraction speed 8.9 X
Track quality 100.0 %
Test CRC 60791A7B
Copy CRC 60791A7B
Accurately ripped (confidence 5) [3998D8E2] (AR v2)
Copy OK

Track 20 Filename C:\Exact Audio Copy\20 Do You Wanna Boogie - Robin Jolley.wav Pre-gap length 0:00:01.74 Peak level 98.8 %
Extraction speed 8.5 X
Track quality 100.0 %
Test CRC B2C9E6F3
Copy CRC B2C9E6F3
Accurately ripped (confidence 5) [ADDEBBBC] (AR v2)
Copy OK

All tracks accurately ripped

No errors occurred

End of status report

==== Log checksum EA1FC4C2B24337AF82BE8909808CD0E1E1D8D5B813F6B51BE4E59367DC043A7C ====

foobar2000 1.3.7 / Dynamic Range Meter 1.1.1
log date: 2015-07-05 00:35:31

Analyzed: Various Artists / Australian Pop Of The 70's Vol 4 Rock Me Gently

DR Peak RMS Duration Track

DR8 0.00 dB -9.31 dB 3:40 01-Sherbet
DR7 -0.50 dB -8.81 dB 2:43 02-Rick Springfield
DR10 -0.20 dB -11.06 dB 3:30 03-Jon English
DR9 -0.50 dB -10.72 dB 2:23 04-Allison Gros
DR9 0.00 dB -11.14 dB 3:03 05-The Bootleg Family Band
DR8 0.00 dB -9.73 dB 2:59 06-Mark Holden
DR9 -0.20 dB -10.87 dB 3:35 07-Vanda & Young
DR7 -1.68 dB -9.61 dB 3:29 08-Dragon
DR9 -0.11 dB -12.65 dB 3:11 09-Smacka Fitzgibbon
DR9 0.00 dB -12.08 dB 3:26 10-Ol'55
DR9 0.00 dB -10.61 dB 2:28 11-John Farnham & Allison Durban
DR8 -0.20 dB -10.16 dB 3:21 12-Stevie Wright
DR9 0.00 dB -10.31 dB 2:41 13-Drummond
DR8 -0.20 dB -9.69 dB 3:15 14-Ted Mulry
DR9 0.00 dB -10.46 dB 3:00 15-Skyhooks
DR6 -0.11 dB -7.81 dB 3:25 16-Healing Force
DR6 -0.69 dB -9.50 dB 3:20 17-Marcia Hines
DR9 -0.10 dB -10.85 dB 2:51 18-Marty Rhone
DR8 -1.10 dB -10.37 dB 4:08 19-Jeff St John & Copperwine
DR8 -0.15 dB -8.93 dB 3:02 20-Jon Blanchfield

Number of tracks: 20
Official DR value: DR8

Samplerate: 44100 Hz
Channels: 2
Bits per sample: 16
Bitrate: 793 kbps
Codec: FLAC

foobar2000 1.3.7 / Dynamic Range Meter 1.1.1
log date: 2015-07-05 00:36:50

Analyzed: Various Artists / Australian Pop Of The 70's Vol 4 Rock Me Gently

DR Peak RMS Duration Track

DR7 -1.30 dB -9.86 dB 3:49 01-Hush
DR9 0.00 dB -11.02 dB 3:40 02-Miss Linda George
DR10 0.00 dB -13.83 dB 3:31 03-Digby Richards
DR9 0.00 dB -10.56 dB 4:33 04-Mi-Sex
DR7 0.00 dB -8.88 dB 3:30 05-Ronnie Burns
DR8 -0.20 dB -9.44 dB 3:31 06-Hot City Bump Band
DR6 -1.50 dB -9.40 dB 4:29 07-Russell Morris
DR8 0.00 dB -10.42 dB 4:49 08-Flash & The Pan
DR8 -0.10 dB -9.51 dB 3:15 09-Harry Young & Sabbath
DR7 -1.37 dB -9.67 dB 3:18 10-S.C.R.A.
DR9 0.00 dB -9.89 dB 3:39 11-Monalisa & Terry Young
DR8 0.00 dB -9.29 dB 4:04 12-Carol Lloyd Band
DR10 0.00 dB -11.44 dB 2:33 13-The Mixtures
DR9 -0.30 dB -11.04 dB 3:54 14-Greg Anderson
DR10 0.00 dB -10.75 dB 3:36 15-Daryl Braithwaite
DR8 0.00 dB -10.67 dB 3:46 16-Air Supply
DR9 0.00 dB -10.05 dB 3:28 17-Ted Mulry Gang
DR8 -0.66 dB -9.53 dB 2:58 18-Troupadours
DR9 -0.70 dB -10.57 dB 3:00 19-John Paul Young
DR7 -0.10 dB -8.42 dB 3:16 20-Robin Jolley

Number of tracks: 20
Official DR value: DR8

Samplerate: 44100 Hz
Channels: 2
Bits per sample: 16
Bitrate: 1068 kbps
Codec: FLAC

password: BlondStyle
DOWNLOAD
(Premium Recommended)


All above links are interchangable. No password

Direct Download

Tags: Various, Artists, Gently, Australian

Various Artists - Rock Me Gently - Australian Pop Of The 70's Vol. 4 [2CD] (2012) Download via Hotfile Rapidshare Fileserve Megaupload & FileSonic, Various Artists - Rock Me Gently - Australian Pop Of The 70's Vol. 4 [2CD] (2012) free torrent downloads included crack, serial, keygen.


Attention!Information

Members of Guest cannot leave comments.