Umlaut - Umlaut (2009)

Download Now

Umlaut - Umlaut (2009)

Umlaut - Umlaut (2009)
EAC Rip | FLAC (Img) + Cue + Log ~ 253 Mb | MP3 CBR320 ~ 90 Mb
Scans (PNG, 600 dpi) ~ 132 Mb | RAR 5% Recovery
Experimental, Jazz Rock, Chamber-Pop | AmpHead Music #AMP036

"Folks familiar with the work of Mr Bungle or Secret Chiefs 3 will appreciate this Australian-based project led by Bar McKinnon. Those looking for Bungle parallels will not have to look far as former Faith No More and Mr Bungle front man Mike Patton makes a guest appearance on the excellent pop-quirked 'Atlas Face'. However by no means does the the album stop and start with this track - Umlaut's debut album is a multi-layered affair, it will at least partially satiate the deep need for more Mr Bungle-like material while standing on it's own as a nice launching point for an entirely new band that hopefully begins to churn out more material with regularity. At times it comes off like a band still figuring each other out, but the musicality is very good and overall it's a fun ride..."

Wiki | Discogs | Prog Archives
***************

Umlaut - Umlaut (2009)

Track List:

01. Kitty Puppy [03:26]
02. Atlas Face [02:53]
03. The Mistaken Power [03:05]
04. Dirty Dishes [02:28]
05. Living the Dream [02:26]
06. Bigfoot is Real [03:36]
07. Work Truck [02:18]
08. The Horrible Things We Say [02:26]
09. Chill Pill (soy ta lahtoe) [03:56]
10. Buttons [06:26]
11. Dain Bramage [04:40]

Bar McKinnon - Vox, Sax, Flute, Clarinet, Keys, Percussion
Shane Lieher - Guitar, Bass, Keys, Screams, Percussion
Angus E. Leslie - Guitar, Vox, Banjo, Percussion
Adam King - Drums, Percussion
Julian Langdon - Electric & Upright Bass
Jeremy Dullard - Vibes
Olaf Scott - Keyboard

Guests:
Mark Turner - Electric & Acoustic Guitar, Ukelele (2,3,5,6)
Natalie Grant - Vibes (1,9)
Mike Patton - Vox (2)
Malt Lieher - Drums(6, 10,11)
Scott Kokenherg - Programing, Production (10)
Jef fLieber - Auxiliary Live Guitars
Justin Marshall - Keys, Vibes, Accordion (2,3,5,6,8)
Trent Menassa - Straight G Shit

Exact Audio Copy V1.0 beta 6 from 9. April 2015

EAC extraction logfile from 11. June 2015, 8:08

Umlaut / Umlaut

Used drive : PIONEER DVD-RW DVR-220RS Adapter: 1 ID: 0

Read mode : Secure
Utilize accurate stream : Yes
Defeat audio cache : Yes
Make use of C2 pointers : No

Read offset correction

: 6
Overread into Lead-In and Lead-Out : No
Fill up missing offset samples with silence : Yes
Delete leading and trailing silent blocks : No
Null samples used in CRC calculations : Yes
Used interface
: Native Win32 interface for Win NT & 2000

Used output format : User Defined Encoder
Selected bitrate : 768 kBit/s
Quality : High
Add ID3 tag : No
Command line compressor : C:\Program Files (x86)\Exact Audio Copy\Wavpack\wavpack.exe
Additional command line options : -hm -w "Year=%year%" -w "Genre=%genre%" %source% %dest%

TOC of the extracted CD Track | Start | Length | Start sector | End sector
--1 | 0:00.00 | 3:25.35 | 0 | 15409 2 | 3:25.35 | 2:52.39 | 15410 | 28348 3 | 6:17.74 | 3:04.33 | 28349 | 42181 4 | 9:22.32 | 2:28.00 | 42182 | 53281 5 | 11:50.32 | 2:25.53 | 53282 | 64209 6 | 14:16.10 | 3:35.54 | 64210 | 80388 7 | 17:51.64 | 2:17.30 | 80389 | 90693 8 | 20:09.19 | 2:25.03 | 90694 | 101571 9 | 22:34.22 | 3:55.61 | 101572 | 119257
10 | 26:30.08 | 6:25.07 | 119258 | 148139
11 | 32:55.15 | 4:39.46 | 148140 | 169110

Range status and errors

Selected range Filename C:\_NL+\_NL+_\CD1\Umlaut - Umlaut.wav Peak level 98.8 %
Extraction speed 6.9 X
Range quality 100.0 %
Test CRC B74E7337
Copy CRC B74E7337
Copy OK

No errors occurred


AccurateRip summary

Track 1 not present in database
Track 2 not present in database
Track 3 not present in database
Track 4 not present in database
Track 5 not present in database
Track 6 not present in database
Track 7 not present in database
Track 8 not present in database
Track 9 not present in database
Track 10 not present in database
Track 11 not present in database

None of the tracks are present in the AccurateRip database

End of status report

- CUETools DB Plugin V2.1.6

[CTDB TOCID: 3jZzHz.HSNk1Km9VkltrgEls_sA-] found
Submit result: 3jZzHz.HSNk1Km9VkltrgEls_sA- has been uploaded
Track | CTDB Status
1 | (1/1) Accurately ripped
2 | (1/1) Accurately ripped
3 | (1/1) Accurately ripped
4 | (1/1) Accurately ripped
5 | (1/1) Accurately ripped
6 | (1/1) Accurately ripped
7 | (1/1) Accurately ripped
8 | (1/1) Accurately ripped
9 | (1/1) Accurately ripped
10 | (1/1) Accurately ripped
11 | (1/1) Differs in 3545 samples @04:39:29-04:39:34
If you are sure that your rip contains errors, you can use CUETools to repair it.

==== Log checksum 8162C27B4F33BDFC92957908872237A1DFA47636365B997EA3B0088C59D63BF4 ====

foobar2000 1.2.6 / Dynamic Range Meter 1.1.1
log date: 2015-07-03 07:14:17

Analyzed: Umlaut / Umlaut

DR Peak RMS Duration Track

DR7 -0.10 dB -9.60 dB 3:25 01-Kitty Puppy
DR6 -0.10 dB -8.81 dB 2:53 02-Atlas Face
DR8 -0.10 dB -9.66 dB 3:04 03-The Mistaken Power
DR6 -0.10 dB -9.02 dB 2:28 04-Dirty Dishes
DR8 -0.10 dB -11.28 dB 2:26 05-Living the Dream
DR8 -0.10 dB -11.61 dB 3:36 06-Bigfoot is Real
DR10 -0.10 dB -11.34 dB 2:17 07-Work Truck
DR6 -0.10 dB -9.52 dB 2:25 08-The Horrible Things We Say
DR8 -0.10 dB -11.86 dB 3:56 09-Chill Pill (soy ta lahtoe)
DR8 -0.10 dB -11.59 dB 6:25 10-Buttons
DR7 -0.10 dB -9.18 dB 4:40 11-Dain Bramage

Number of tracks: 11
Official DR value: DR8

Samplerate: 44100 Hz
Channels: 2
Bits per sample: 16
Bitrate: 896 kbps
Codec: FLAC

[CUETools log; Date: 03.07.2015 7:14:05; Version: 2.1.5]
[CTDB TOCID: 3jZzHz.HSNk1Km9VkltrgEls_sA-] found.
Track | CTDB Status
1 | (2/2) Accurately ripped
2 | (2/2) Accurately ripped
3 | (2/2) Accurately ripped
4 | (2/2) Accurately ripped
5 | (2/2) Accurately ripped
6 | (2/2) Accurately ripped
7 | (2/2) Accurately ripped
8 | (2/2) Accurately ripped
9 | (2/2) Accurately ripped
10 | (2/2) Accurately ripped
11 | (1/2) Accurately ripped, or (1/2) differs in 3545 samples @04:39:29-04:39:34
[AccurateRip ID: 000decd5-0079eb7d-9408ce0b] disk not present in database.

Track Peak [ CRC32 ] [W/O NULL] [ LOG ]
-- 98,8 74E7337 [61748BAD] CRC32
01 98,8 [37760521] [0CEACC96]
02 98,8 [78899522] [4684420C]
03 98,8 [5FE4BB13] [DE724E46]
04 98,8 [E64CDAE4] [AA58C838]
05 98,8 [930C7144] [EC2FB52B]
06 98,8 [9F5A1539] [FAB3F133]
07 98,8 [484C627E] [3C429F0E]
08 98,8 [87DA5B94] [3E9E1B37]
09 98,8 [59085891] [7567699D]
10 98,8 [45C56A04] [F3489ACB]
11 98,8 [A9B67DE3] [C36D9042]

Umlaut - Umlaut (2009)


DOWNLOAD:
Buy Premium From My Links To Get Resumable Support & Max Speed & To Support Me


Links are Interchangeable - No Password

Direct Download

Tags: Umlaut, Umlaut

Umlaut - Umlaut (2009) Download via Hotfile Rapidshare Fileserve Megaupload & FileSonic, Umlaut - Umlaut (2009) free torrent downloads included crack, serial, keygen.


Attention!Information

Members of Guest cannot leave comments.