CWT ‎- The Hundredweight (1973) [Reissue 1991]

Download Now

CWT ‎- The Hundredweight (1973) [Reissue 1991]

CWT ‎- The Hundredweight (1973) [Reissue 1991]
EAC Rip | FLAC (tracks & cue & log) | 227 MB | MP3 CBR 320 kbps | 105 MB | Scans | 31:44
Genre: Hard Rock / Prog Rock | Country: UK | Label: Kuckuck | 11022-2

"CWT was a three piece British band that somehow ended up on Germany's Kuckuck label, home to such acts as Armaggedon, Ihre Kinder, and Out Of Focus. Adding to the mystery is that this was co-produced by Andrew Loog Oldham. I suspect that CWT was one of the many British bands that were able to support themselves only by playing the club circuit in Germany."



Tracklist:

1. Widow Woman
2. Take It Slow
3. Roly Poly
4. Signed D.C
5. Steam Roller
6. Simon's Effort
7. Mind Cage
8. Mephistophales

Exact Audio Copy V1.0 beta 3 from 29. August 2011

EAC extraction logfile from 15. November 2014, 1:03

CWT / The Hundredweight

Used drive : hp CDDVDW SN-208FB Adapter: 0 ID: 0

Read mode : Secure
Utilize accurate stream : Yes
Defeat audio cache : Yes
Make use of C2 pointers : No

Read offset correction

: 6
Overread into Lead-In and Lead-Out : No
Fill up missing offset samples with silence : Yes
Delete leading and trailing silent blocks : No
Null samples used in CRC calculations : Yes
Used interface
: Installed external ASPI interface
Gap handling
: Appended to previous track

Used output format : User Defined Encoder
Selected bitrate : 1024 kBit/s
Quality : High
Add ID3 tag : No
Command line compressor : C:\Program Files (x86)\Exact Audio Copy\flac.exe
Additional command line options : -T "artist=%artist%" -T "title=%title%" -T "album=%albumtitle%" -T "date=%year%" -T "tracknumber=%tracknr%" -T "genre=%genre%" -5 %source%

TOC of the extracted CD Track | Start | Length | Start sector | End sector
--1 | 0:00.00 | 3:19.42 | 0 | 14966 2 | 3:19.42 | 3:52.29 | 14967 | 32395 3 | 7:11.71 | 4:15.72 | 32396 | 51592 4 | 11:27.68 | 4:15.19 | 51593 | 70736 5 | 15:43.12 | 4:00.55 | 70737 | 88791 6 | 19:43.67 | 3:05.74 | 88792 | 102740 7 | 22:49.66 | 3:38.13 | 102741 | 119103 8 | 26:28.04 | 5:14.51 | 119104 | 142704

Track 1 Filename C:\Users\Nelson Souto\Desktop\CWT\(01) CWT - Widow Woman .wav Pre-gap length 0:00:02.00 Peak level 96.4 %
Extraction speed 1.6 X
Track quality 99.9 %
Test CRC D0C03CE7
Copy CRC D0C03CE7
Accurately ripped (confidence 1) [2AFBA9BB] (AR v2)
Copy OK

Track 2 Filename C:\Users\Nelson Souto\Desktop\CWT\(02) CWT - Take It Slow .wav Pre-gap length 0:00:03.01 Peak level 77.4 %
Extraction speed 1.8 X
Track quality 99.9 %
Test CRC F94957AB
Copy CRC F94957AB
Accurately ripped (confidence 1) [6DFE8E89] (AR v2)
Copy OK

Track 3 Filename C:\Users\Nelson Souto\Desktop\CWT\(03) CWT - Roly Poly .wav Pre-gap length 0:00:03.77 Peak level 92.0 %
Extraction speed 2.0 X
Track quality 99.9 %
Test CRC 938C6514
Copy CRC 938C6514
Accurately ripped (confidence 1) [2C34C942] (AR v2)
Copy OK

Track 4 Filename C:\Users\Nelson Souto\Desktop\CWT\(04) CWT - Signed D.C. .wav Pre-gap length 0:00:03.97 Peak level 84.5 %
Extraction speed 2.6 X
Track quality 100.0 %
Test CRC 2FECE420
Copy CRC 2FECE420
Accurately ripped (confidence 1) [7859D786] (AR v2)
Copy OK

Track 5 Filename C:\Users\Nelson Souto\Desktop\CWT\(05) CWT - Steam Roller .wav Pre-gap length 0:00:03.92 Peak level 89.7 %
Extraction speed 2.8 X
Track quality 100.0 %
Test CRC 2BE23ABE
Copy CRC 2BE23ABE
Accurately ripped (confidence 1) [E892A163] (AR v2)
Copy OK

Track 6 Filename C:\Users\Nelson Souto\Desktop\CWT\(06) CWT - Simon's Effort .wav Pre-gap length 0:00:03.74 Peak level 94.1 %
Extraction speed 2.8 X
Track quality 100.0 %
Test CRC 6D14C264
Copy CRC 6D14C264
Accurately ripped (confidence 1) [E54CD691] (AR v2)
Copy OK

Track 7 Filename C:\Users\Nelson Souto\Desktop\CWT\(07) CWT - Mind Cage .wav Pre-gap length 0:00:03.28 Peak level 96.7 %
Extraction speed 3.0 X
Track quality 100.0 %
Test CRC 4A9DA0A2
Copy CRC 4A9DA0A2
Accurately ripped (confidence 1) [47F2BB81] (AR v2)
Copy OK

Track 8 Filename C:\Users\Nelson Souto\Desktop\CWT\(08) CWT - Mephistophales .wav Pre-gap length 0:00:01.98 Peak level 99.4 %
Extraction speed 3.3 X
Track quality 100.0 %
Test CRC 092F8401
Copy CRC 092F8401
Accurately ripped (confidence 1) [06E1238F] (AR v2)
Copy OK

All tracks accurately ripped

No errors occurred

End of status report

- CUETools DB Plugin V2.1.3

[CTDB TOCID: NxddT4EFaUedEQaLTJD2Q5KkXZw-] disk not present in database, Submit result: NxddT4EFaUedEQaLTJD2Q5KkXZw- has been uploaded

==== Log checksum 2600A602AF59546E436FFBA4E83FE1C24CA9CD465E84DA5B816596CBB2CA7DE9 ====


Personnel


Graham Jones - lead guitar / organ
Peter Kirk - bass guitar / piano
Colin White - drums / percussion
Cy Payne - brass arrangements

All thanks to original releaser


CWT ‎- The Hundredweight (1973) [Reissue 1991]


DOWNLOAD LINKS:
Buy Premium To Support Me & Get Resumable Support & Max Speed


Links are Interchangeable - No Password - Single Extraction

Direct Download

Tags: Hundredweight, Reissue

CWT ‎- The Hundredweight (1973) [Reissue 1991] Download via Hotfile Rapidshare Fileserve Megaupload & FileSonic, CWT ‎- The Hundredweight (1973) [Reissue 1991] free torrent downloads included crack, serial, keygen.


Attention!Information

Members of Guest cannot leave comments.