Ottawan - Hands Up (1984)

Download Now

Ottawan - Hands Up (1984)

Ottawan - Hands Up (1984)
EAC Rip | FLAC (Img) + Cue + Log ~ 344 Mb | MP3 CBR320 ~ 150 Mb
Scans Included (JPG, 600 dpi) | RAR 5% Recovery
Disco, Pop | Compilation | Karussell #837 183-2

"Despite its Canadian-sounding name, the disco duet Ottawan, comprised of two Caribbean-born singers Jean Patrick (born on April 6, 1954) and Annette (born on November 1, 1958), was a brainchild of the French producer team Daniel Vangarde and Jean Kluger. Vangarde who also worked with Dalida, the Gibson Brothers and Sheila & B. Devotion discovered Jean Patrick in one of the Parisian clubs where the latter performed with his band Black Underground. The producers decided to change the name of the band, reportedly they came up with the idea of the present name on their way back from Canada. Ottawan's catchy debut single "D.I.S.C.O" was a massive dance hit around Europe in 1980 and even made it to number two in Great Britain, staying in the charts for 18 weeks. 1981's "Hands Up" was almost as successful, reaching number three in the UK and logging on the charts for 15 weeks..."

Official Website | Wiki | Discogs | All Music
***************

Ottawan - Hands Up (1984)

Track List:

01. Hands Up [03:23]
02. Shalala Song [03:44]
03. Siesta For Two [04:03]
04. Shubidube Love [02:53]
05. Crazy Music [05:31]
06. Help, Get Me Some Help [04:31]
07. D.I.S.C.O. (English Version) [05:03]
08. Itґs A Top Secret [03:20]
09. Hello Rio [04:29]
10. A.I.E. Is My Song [03:32]
11. Sing Alone With The Juke-Box [04:06]
12. Youґre O.K. [05:12]

Exact Audio Copy V1.1 from 23. June 2015

EAC extraction logfile from 6. July 2015, 11:20

Ottawan / Hands Up

Used drive : ASUS DRW-2014L1 Adapter: 1 ID: 0

Read mode : Secure
Utilize accurate stream : Yes
Defeat audio cache : Yes
Make use of C2 pointers : No

Read offset correction

: 6
Overread into Lead-In and Lead-Out : No
Fill up missing offset samples with silence : Yes
Delete leading and trailing silent blocks : No
Null samples used in CRC calculations : Yes
Used interface
: Native Win32 interface for Win NT & 2000

Used output format : User Defined Encoder
Selected bitrate : 1024 kBit/s
Quality : High
Add ID3 tag : No
Command line compressor : C:\Program Files\Exact Audio Copy 1.1\Flac\flac.exe
Additional command line options : -8 -V -T "ARTIST=%artist%" -T "TITLE=%title%" -T "ALBUM=%albumtitle%" -T "DATE=%year%" -T "TRACKNUMBER=%tracknr%" -T "GENRE=%genre%" -T "COMMENT=%comment%" -T "ALBUMARTIST=%albuminterpret%" -T "DISCNUMBER=%cdnumber%" -T "TOTALDISCS=%totalcds%" -T "TOTALTRACKS=%numtracks%" %source% -o %dest%

TOC of the extracted CD Track | Start | Length | Start sector | End sector
--1 | 0:00.33 | 3:22.07 | 33 | 15189 2 | 3:22.40 | 3:43.40 | 15190 | 31954 3 | 7:06.05 | 4:02.58 | 31955 | 50162 4 | 11:08.63 | 2:52.45 | 50163 | 63107 5 | 14:01.33 | 5:30.62 | 63108 | 87919 6 | 19:32.20 | 4:30.15 | 87920 | 108184 7 | 24:02.35 | 5:02.18 | 108185 | 130852 8 | 29:04.53 | 3:19.07 | 130853 | 145784 9 | 32:23.60 | 4:28.40 | 145785 | 165924
10 | 36:52.25 | 3:31.18 | 165925 | 181767
11 | 40:23.43 | 4:05.45 | 181768 | 200187
12 | 44:29.13 | 5:11.65 | 200188 | 223577

Range status and errors

Selected range Filename C:\Temp\Ottawan - Hands Up (1984).wav Peak level 99.0 %
Extraction speed 6.1 X
Range quality 99.9 %
Test CRC CB4F002E
Copy CRC CB4F002E
Copy OK

No errors occurred


AccurateRip summary

Track 1 accurately ripped (confidence 3) [0006B0B1] (AR v2)
Track 2 accurately ripped (confidence 3) [2DAEB020] (AR v2)
Track 3 accurately ripped (confidence 3) DFD184D (AR v2)
Track 4 accurately ripped (confidence 3) [5D2AF876] (AR v2)
Track 5 accurately ripped (confidence 3) [6072A85A] (AR v2)
Track 6 accurately ripped (confidence 3) [ED2CF903] (AR v2)
Track 7 accurately ripped (confidence 3) [A178FB6D] (AR v2)
Track 8 accurately ripped (confidence 3) [59E86A73] (AR v2)
Track 9 accurately ripped (confidence 3) [4DE356E4] (AR v2)
Track 10 accurately ripped (confidence 3) A5F90B4 (AR v2)
Track 11 accurately ripped (confidence 3) [F23DB6C8] (AR v2)
Track 12 accurately ripped (confidence 3) [9F6AEB27] (AR v2)

All tracks accurately ripped

End of status report

==== Log checksum DD5482BBF84720C662AE48A19E4C8616E1222566A51CE75B6A65B6B3BA676683 ====

foobar2000 1.2.6 / Dynamic Range Meter 1.1.1
log date: 2015-07-07 01:12:17

Analyzed: Ottawan / Hands Up

DR Peak RMS Duration Track

DR13 -1.82 dB -16.83 dB 3:22 01-Hands Up
DR15 -2.91 dB -19.21 dB 3:44 02-Shalala Song
DR13 -1.13 dB -16.03 dB 4:03 03-Siesta For Two
DR13 -1.53 dB -16.47 dB 2:53 04-Shubidube Love
DR14 -1.18 dB -16.79 dB 5:31 05-Crazy Music
DR15 -0.08 dB -16.71 dB 4:30 06-Help, Get Me Some Help
DR13 -1.05 dB -16.16 dB 5:02 07-D.I.S.C.O. (English Version)
DR12 -1.85 dB -15.46 dB 3:19 08-Itґs A Top Secret
DR14 -1.56 dB -17.32 dB 4:29 09-Hello Rio
DR13 -0.96 dB -16.14 dB 3:31 10-A.I.E. Is My Song
DR14 -2.28 dB -17.41 dB 4:06 11-Sing Alone With The Juke-Box
DR16 -1.43 dB -20.45 dB 5:12 12-Youґre O.K.

Number of tracks: 12
Official DR value: DR14

Samplerate: 44100 Hz
Channels: 2
Bits per sample: 16
Bitrate: 840 kbps
Codec: FLAC

[CUETools log; Date: 07.07.2015 1:12:16; Version: 2.1.5]
Pregap length 00:00:33.
[CTDB TOCID: 0Uhfne1tK9WwTbiRatQWbooJ6vM-] found.
Track | CTDB Status
1 | (2/2) Accurately ripped
2 | (2/2) Accurately ripped
3 | (2/2) Accurately ripped
4 | (2/2) Accurately ripped
5 | (2/2) Accurately ripped
6 | (2/2) Accurately ripped
7 | (2/2) Accurately ripped
8 | (2/2) Accurately ripped
9 | (2/2) Accurately ripped
10 | (2/2) Accurately ripped
11 | (2/2) Accurately ripped
12 | (2/2) Accurately ripped
[AccurateRip ID: 00156eeb-00ca3c0a-970ba50c] found.
Track [ CRC | V2 ] Status
01 [59569127|0006b0b1] (5+3/8) Accurately ripped
02 [d1602b40|2daeb020] (5+3/8) Accurately ripped
03 [c465b257|bdfd184d] (4+3/7) Accurately ripped
04 [901ded8a|5d2af876] (5+3/8) Accurately ripped
05 [2a938c3c|6072a85a] (5+3/8) Accurately ripped
06 ae40446|ed2cf903 (5+3/8) Accurately ripped
07 [493c631d|a178fb6d] (5+3/8) Accurately ripped
08 [e5635531|59e86a73] (5+3/8) Accurately ripped
09 [e532ce50|4de356e4] (5+3/8) Accurately ripped
10 [32108171|ba5f90b4] (5+3/8) Accurately ripped
11 [fb29409e|f23db6c8] (5+3/8) Accurately ripped
12 [14e1f66f|9f6aeb27] (5+3/8) Accurately ripped

Track Peak [ CRC32 ] [W/O NULL] [ LOG ]
-- 99,0 [CB4F002E] [2E6FB3FB] CRC32
01 81,1 [2D123971] [88602333]
02 71,5 [6486A20E] [4A3078AD]
03 87,8 [229E45CA] [27DDD539]
04 83,8 [340B15B6] [8DD0A5CA]
05 87,2 [2F8C5EB6] [9EBD3111]
06 99,0 [FC624966] [DA261427]
07 88,6 [F3EB22DE] [89E7F316]
08 80,7 [F9079742] [A1AE4199]
09 83,5 [A5003669] [1DD7166A]
10 89,5 [E1C36E32] [1B3A3BF6]
11 76,8 [D366D8CF] [4E83D9DD]
12 84,7 [C8527C8C] [4ACB8F82]

Ottawan - Hands Up (1984)



DOWNLOAD LINKS:
(Premium Recommended)


All above links are interchangable. No password

Direct Download

Tags: Ottawan

Ottawan - Hands Up (1984) Download via Hotfile Rapidshare Fileserve Megaupload & FileSonic, Ottawan - Hands Up (1984) free torrent downloads included crack, serial, keygen.


Attention!Information

Members of Guest cannot leave comments.