Shankar - Vision (1984) {ECM 1261}

Download Now

Shankar - Vision (1984) {ECM 1261}

Shankar - Vision (1984) {ECM 1261}
EAC 1.0b1 | FLAC tracks level 8 | Cue+Log+M3U | Full Scans 300dpi | 193MB + 5% Recovery
Genre: Ethnic Fusion, Indian Classical

"L. Shankar's Vision is an ethereal tour-de-force -- an oxymoron, perhaps, but an appropriate description of the otherworldly visions he conjures with his manipulations of his 10-string, stereophonic, double-necked, electric violin. The lengthy title track is a solo space journey on his massive instrument, with lots of phasing undercurrents and an aural experience of weightlessness that is rather pleasant. On the other tracks, Shankar is flanked by the hot, piercing Jan Garbarek on saxes and the cool Palle Mikkelborg on trumpet and flugelhorn, who contribute heat and ice to Shankar's textures."

Track List
01. All For You 6:33
02. Vision 13:42
03. Astral Projection 5:43
04. Psychic Elephant 11:48
05. The Message 7:21

musicians
Lakshminarayana Shankar - 10-string stereophonic double violin, percussion
Jan Garbarek - tenor, soprano and bass saxophones, percussion
Palle Mikkelborg - trumpet, fluegelhorn

Produced by Manfred Eicher

Exact Audio Copy V1.0 beta 1 from 15. November 2010

EAC extraction logfile from 6. April 2011, 15:33

Shankar / Vision

Used drive : TSSTcorpCDDVDW TS-L633A Adapter: 3 ID: 0

Read mode : Secure
Utilize accurate stream : Yes
Defeat audio cache : Yes
Make use of C2 pointers : No

Read offset correction

: 6
Overread into Lead-In and Lead-Out : No
Fill up missing offset samples with silence : Yes
Delete leading and trailing silent blocks : No
Null samples used in CRC calculations : Yes
Used interface
: Installed external ASPI interface
Gap handling
: Appended to previous track

Used output format : User Defined Encoder
Selected bitrate : 896 kBit/s
Quality : High
Add ID3 tag : No
Command line compressor : C:\Program Files\Exact Audio Copy\FLAC\FLAC.EXE
Additional command line options : -8 -V -T "ARTIST=%a" -T "TITLE=%t" -T "ALBUM=%g" -T "DATE=%y" -T "TRACKNUMBER=%n" -T "TOTALTRACKS=%x" -T "GENRE=%m" -T "ALBUMARTIST=%v" -T "ALBUM ARTIST=%v" -T "COMMENT=EAC Secure Mode, Test & Copy, AccurateRip, FLAC -8" %s

TOC of the extracted CD Track | Start | Length | Start sector | End sector
--1 | 0:00.33 | 6:36.12 | 33 | 29744 2 | 6:36.45 | 13:45.00 | 29745 | 91619 3 | 20:21.45 | 5:47.38 | 91620 | 117682 4 | 26:09.08 | 11:54.37 | 117683 | 171269 5 | 38:03.45 | 7:21.63 | 171270 | 204407

Track 1 Filename C:\MY RIPS\01 - All For You.wav Pre-gap length 0:00:02.33 Peak level 75.0 %
Extraction speed 1.1 X
Track quality 99.9 %
Test CRC AD03B2C2
Copy CRC AD03B2C2
Cannot be verified as accurate (confidence 13) [CD8E706D], AccurateRip returned [79F293BD]
Copy OK

Track 2 Filename C:\MY RIPS\02 - Vision.wav Pre-gap length 0:00:02.37 Peak level 66.3 %
Extraction speed 1.5 X
Track quality 100.0 %
Test CRC 35D046A4
Copy CRC 35D046A4
Cannot be verified as accurate (confidence 13) [6960437A], AccurateRip returned [3506DF42]
Copy OK

Track 3 Filename C:\MY RIPS\03 - Astral Projection.wav Pre-gap length 0:00:03.00 Peak level 59.4 %
Extraction speed 1.7 X
Track quality 100.0 %
Test CRC CE713D8A
Copy CRC CE713D8A
Cannot be verified as accurate (confidence 14) [0D53F05B], AccurateRip returned [776E2293]
Copy OK

Track 4 Filename C:\MY RIPS\04 - Psychic Elephant.wav Pre-gap length 0:00:04.00 Peak level 68.7 %
Extraction speed 1.9 X
Track quality 100.0 %
Test CRC A4DFC098
Copy CRC A4DFC098
Cannot be verified as accurate (confidence 14) [48A30761], AccurateRip returned [A49AA501]
Copy OK

Track 5 Filename C:\MY RIPS\05 - The Message.wav Pre-gap length 0:00:06.37 Peak level 57.3 %
Extraction speed 2.0 X
Track quality 100.0 %
Test CRC 84753046
Copy CRC 84753046
Cannot be verified as accurate (confidence 14) [89DA1A44], AccurateRip returned [CE44031C]
Copy OK

No tracks could be verified as accurate
You may have a different pressing from the one(s) in the database

No errors occurred

End of status report

==== Log checksum 16F7ABCEA16CCEE792A0074CF7BA03CB52B5B598D7E3B189B12F2670F05B4170 ====

Analyzed: Shankar / Vision

DR Peak RMS Duration Track

DR15 -2.49 dB -22.12 dB 6:36 01-All For You
DR14 -3.57 dB -22.63 dB 13:45 02-Vision
DR13 -4.52 dB -23.22 dB 5:48 03-Astral Projection
DR15 -3.26 dB -21.97 dB 11:54 04-Psychic Elephant
DR16 -4.84 dB -26.31 dB 7:22 05-The Message

Number of tracks: 5
Official DR value: DR14

Samplerate: 44100 Hz
Channels: 2
Bits per sample: 16
Bitrate: 576 kbps
Codec: FLAC

Shankar - Vision (1984) {ECM 1261}

Shankar - Vision (1984) {ECM 1261}

Rip by sasha4100


DOWNLOAD
(Premium Recommended)


All above links are interchangable. No password

Direct Download

Tags: Shankar, Vision

Shankar - Vision (1984) {ECM 1261} Download via Hotfile Rapidshare Fileserve Megaupload & FileSonic, Shankar - Vision (1984) {ECM 1261} free torrent downloads included crack, serial, keygen.


Attention!Information

Members of Guest cannot leave comments.