Debashish Bhattacharya & Bob Brozman - Mahima (2003)

Download Now

Debashish Bhattacharya & Bob Brozman - Mahima (2003)

Debashish Bhattacharya & Bob Brozman - Mahima (2003)
EAC Rip | FLAC with CUE and log | scans | 431mb
MP3 CBR 320kbps | RAR | 219mb
Genre: Indian classical, world

Mahima is a 2003 album between guitarists Debashish Bhattacharya and Bob Brozman. Bhattacharya plays a Hindustani slide guitar and sounds very much like a sitar. Brozman plays a western-style guitar but often plays in whatever style he plays in, be it Hawaiian slack key, Flamenco, or European folk. The two guitarists are joined by Subhashis Bhattacharya on tabla and percussion, and Sutapa Bhattacharya on vocals. This CD was released by Riverboat/World Music Network.
Mahima: Pronounced "maheema", it roughly translates as 'divine inspiration through artistic creation'.


"Have national guitar, will travel seems to be Bob Brozman's motto right now, as the New York-born slide king has been using up his air miles with abandon over the past few years. And worthy though his collaborations with musicians from Okinawa, the Indian Ocean and elsewhere are, it is going to take something special to top this. Bhattacharya, from Kolkata, plays the 24-string Hindustani guitar, modified in such a way that the sound resembles the sitar. No surprise, then, that he is a recent Shakti member. On the 11 tracks here, the singing and impressive percussion remind you that you are listening to some unique form of Indian classical music; but it is the guitars that suck you in. Complex, fiery and bewildering duels explode out of the ragas, notes bending every which way, half-Hendrix, half-Shankar. Truly groundbreaking."


Debashish Bhattacharya & Bob Brozman - Mahima (2003)

01. Bahu Dur Dur
02. Sur-o-Lahari
03. Tagore Street Blues
04. Maa
05. Digi Digi Dom Dom
06. Bana Mali
07. Jibaner Gan
08. Sujan Re
09. Konkani Memories
10. Loomba Re Loomba
11. Lullabai

Debashish Bhattacharya & Bob Brozman - Mahima (2003)



EAC extraction logfile from 24. November 2006, 16:29 for CD
Debashish Bhattacharya & Bob Brozman / Mahima

Used drive : LITE-ON DVDRW SOHW-1633S Adapter: 0 ID: 0
Read mode : Secure with NO C2, accurate stream, disable cache
Read offset correction : 12
Overread into Lead-In and Lead-Out : No

Used output format : Internal WAV Routines 44.100 Hz; 16 Bit; Stereo

Other options :
Fill up missing offset samples with silence : Yes
Delete leading and trailing silent blocks : No
Installed external ASPI interface

Track 1
Filename D:\FLAC\Debashish Bhattacharya & Bob Brozman - Mahima (2003) [FLAC]\01 - Bahu Dur Dur.wav Pre-gap length 0:00:02.00 Peak level 92.1 %
Track quality 100.0 %
Test CRC 458B340C
Copy CRC 458B340C
Copy OK

Track 2
Filename D:\FLAC\Debashish Bhattacharya & Bob Brozman - Mahima (2003) [FLAC]\02 - Sur-o-Lahari.wav Pre-gap length 0:00:02.00 Peak level 97.0 %
Track quality 100.0 %
Test CRC 76FFF093
Copy CRC 76FFF093
Copy OK

Track 3
Filename D:\FLAC\Debashish Bhattacharya & Bob Brozman - Mahima (2003) [FLAC]\03 - Tagore Street Blues.wav Pre-gap length 0:00:02.00 Peak level 91.5 %
Track quality 100.0 %
Test CRC 151EE46F
Copy CRC 151EE46F
Copy OK

Track 4
Filename D:\FLAC\Debashish Bhattacharya & Bob Brozman - Mahima (2003) [FLAC]\04 - Maa.wav Pre-gap length 0:00:02.00 Peak level 75.9 %
Track quality 100.0 %
Test CRC 472A7546
Copy CRC 472A7546
Copy OK

Track 5
Filename D:\FLAC\Debashish Bhattacharya & Bob Brozman - Mahima (2003) [FLAC]\05 - Digi Digi Dom Dom.wav Pre-gap length 0:00:02.00 Peak level 80.0 %
Track quality 100.0 %
Test CRC F8D7AB38
Copy CRC F8D7AB38
Copy OK

Track 6
Filename D:\FLAC\Debashish Bhattacharya & Bob Brozman - Mahima (2003) [FLAC]\06 - Bana Mali.wav Pre-gap length 0:00:02.00 Peak level 94.6 %
Track quality 99.9 %
Test CRC BE9B1571
Copy CRC BE9B1571
Copy OK

Track 7
Filename D:\FLAC\Debashish Bhattacharya & Bob Brozman - Mahima (2003) [FLAC]\07 - Jibaner Gan.wav Pre-gap length 0:00:02.00 Peak level 94.6 %
Track quality 99.9 %
Test CRC 5F59DAC4
Copy CRC 5F59DAC4
Copy OK

Track 8
Filename D:\FLAC\Debashish Bhattacharya & Bob Brozman - Mahima (2003) [FLAC]\08 - Sujan Re.wav Pre-gap length 0:00:02.00 Peak level 88.9 %
Track quality 100.0 %
Test CRC 188DA422
Copy CRC 188DA422
Copy OK

Track 9
Filename D:\FLAC\Debashish Bhattacharya & Bob Brozman - Mahima (2003) [FLAC]\09 - Konkani Memories.wav Pre-gap length 0:00:02.00 Peak level 94.6 %
Track quality 100.0 %
Test CRC 7E5BCA3B
Copy CRC 7E5BCA3B
Copy OK

Track 10
Filename D:\FLAC\Debashish Bhattacharya & Bob Brozman - Mahima (2003) [FLAC]\10 - Loomba Re Loomba.wav Pre-gap length 0:00:02.00 Peak level 87.6 %
Track quality 99.9 %
Test CRC 1F41E6EB
Copy CRC 1F41E6EB
Copy OK

Track 11
Filename D:\FLAC\Debashish Bhattacharya & Bob Brozman - Mahima (2003) [FLAC]\11 - Lullabai.wav Pre-gap length 0:00:02.00 Peak level 100.0 %
Track quality 100.0 %
Test CRC 666BDECC
Copy CRC 666BDECC
Copy OK

No errors occured

End of status report

Debashish Bhattacharya & Bob Brozman - Mahima (2003)

DOWNLOAD LINKS:
Buy Premium To Support Me & Get Resumable Support & Max Speed


Links are Interchangeable - No Password - Single Extraction

Direct Download

Tags: Debashish, Bhattacharya, Brozman, Mahima

Debashish Bhattacharya & Bob Brozman - Mahima (2003) Download via Hotfile Rapidshare Fileserve Megaupload & FileSonic, Debashish Bhattacharya & Bob Brozman - Mahima (2003) free torrent downloads included crack, serial, keygen.


Attention!Information

Members of Guest cannot leave comments.