Anouar Brahem - Le Voyage De Sahar (2006) {ECM 1915} [Re-Up]

Download Now

Anouar Brahem - Le Voyage De Sahar (2006) {ECM 1915} [Re-Up]

Anouar Brahem - Le Voyage De Sahar (2006) {ECM 1915}
EAC 1.0b3 | FLAC tracks level 8 | Cue+Log+M3U | Full Scans 300dpi | 274MB + 5% Recovery
Genre: Jazz, Ethnic Fusion

"Over the past 15 years, Tunisian oud master Anouar Brahem has assembled a relatively small but profound body of work. A skilled improviser who refuses to be part of the historical authenticity argument, Brahem works from the same trio setting that performed on Le Pas du Chat Noir in 2002, with pianist François Couturier and accordionist Jean-Louis Matinier. The dialogue between these players is, despite the sparseness of the music and the considerable space employed, intense. The deep listening necessary in the improvised sections allows for a natural flow of ideas to emerge from silence. The compositions themselves are skeletal, with repeating, slowly evolving vamps and lyric lines."

Track List
01. Sur le Fleuve 6:33
02. Le Voyage de Sahar 6:55
03. L 'Aube 5:48
04. Vague/E la Nave Va 6:19
05. Les Jardins de Ziryab 4:34
06. Nuba 3:12
07. La Chambre 5:01
08. Córdoba 5:30
09. Halfaouine 2:06
10. La Chambre Var. 3:47
11. Zarabanda 4:26
12. Été Andalous 7:05
13. Vague Var. 2:18

All compositions by Anouar Brahem

musicians
Anouar Brahem - oud
François Couturier - piano
Jean Louis Matinier - accordion

Produced by Manfred Eicher

Exact Audio Copy V1.0 beta 3 from 29. August 2011

EAC extraction logfile from 22. June 2013, 1:05

Anouar Brahem / Le voyage de Sahar [ECM 1915]

Used drive : PIONEER DVD-RW DVR-111D Adapter: 5 ID: 1

Read mode : Secure
Utilize accurate stream : Yes
Defeat audio cache : Yes
Make use of C2 pointers : No

Read offset correction

: 48
Overread into Lead-In and Lead-Out : No
Fill up missing offset samples with silence : Yes
Delete leading and trailing silent blocks : No
Null samples used in CRC calculations : Yes
Used interface
: Native Win32 interface for Win NT & 2000
Gap handling
: Appended to previous track

Used output format : User Defined Encoder
Selected bitrate : 256 kBit/s
Quality : High
Add ID3 tag : No
Command line compressor : C:\Archivos de programa\Exact Audio Copy\FLAC\FLAC.EXE
Additional command line options : -8 -V -T "ARTIST=%artist%" -T "TITLE=%title%" -T "ALBUM=%albumtitle%" -T "DATE=%year%" -T "TRACKNUMBER=%tracknr%" -T "TOTALTRACKS=%numtracks%" -T "GENRE=%genre%" -T "ALBUMARTIST=%albumartist%" -T "ALBUM ARTIST=%albumartist%" -T "COMMENT=EAC Secure Mode, Test & Copy, AccurateRip, FLAC -8" %source%

TOC of the extracted CD Track | Start | Length | Start sector | End sector
--1 | 0:00.00 | 6:33.11 | 0 | 29485 2 | 6:33.11 | 6:55.36 | 29486 | 60646 3 | 13:28.47 | 5:48.27 | 60647 | 86773 4 | 19:16.74 | 6:19.19 | 86774 | 115217 5 | 25:36.18 | 4:34.51 | 115218 | 135818 6 | 30:10.69 | 3:12.64 | 135819 | 150282 7 | 33:23.58 | 5:01.20 | 150283 | 172877 8 | 38:25.03 | 5:30.54 | 172878 | 197681 9 | 43:55.57 | 2:06.64 | 197682 | 207195
10 | 46:02.46 | 3:47.73 | 207196 | 224293
11 | 49:50.44 | 4:26.57 | 224294 | 244300
12 | 54:17.26 | 7:05.72 | 244301 | 276247
13 | 61:23.23 | 2:18.71 | 276248 | 286668

Track 1 Filename D:\flac rips\01 - Sur le fleuve.wav Pre-gap length 0:00:02.00 Peak level 60.9 %
Extraction speed 1.1 X
Track quality 100.0 %
Test CRC 2706827B
Copy CRC 2706827B
Accurately ripped (confidence 28) [505489A4] (AR v2)
Copy OK

Track 2 Filename D:\flac rips\02 - Le voyage de Sahar.wav Peak level 60.9 %
Extraction speed 1.3 X
Track quality 100.0 %
Test CRC FD2FDD60
Copy CRC FD2FDD60
Accurately ripped (confidence 28) [777DC781] (AR v2)
Copy OK

Track 3 Filename D:\flac rips\03 - L'au be.wav Peak level 60.9 %
Extraction speed 1.4 X
Track quality 100.0 %
Test CRC FED4374A
Copy CRC FED4374A
Accurately ripped (confidence 28) [A71C2CBB] (AR v2)
Copy OK

Track 4 Filename D:\flac rips\04 - Vague-E la nave va.wav Peak level 60.9 %
Extraction speed 1.6 X
Track quality 100.0 %
Test CRC 4EB88926
Copy CRC 4EB88926
Accurately ripped (confidence 27) [A226A999] (AR v2)
Copy OK

Track 5 Filename D:\flac rips\05 - Les jardins de Ziryab.wav Peak level 60.9 %
Extraction speed 1.6 X
Track quality 100.0 %
Test CRC 7CE6367A
Copy CRC 7CE6367A
Accurately ripped (confidence 27) [E7AF78C9] (AR v2)
Copy OK

Track 6 Filename D:\flac rips\06 - Nuba.wav Peak level 60.9 %
Extraction speed 1.6 X
Track quality 100.0 %
Test CRC 6086BD83
Copy CRC 6086BD83
Accurately ripped (confidence 27) [43F9C775] (AR v2)
Copy OK

Track 7 Filename D:\flac rips\07 - La chambre.wav Peak level 60.9 %
Extraction speed 1.8 X
Track quality 100.0 %
Test CRC D1B8B019
Copy CRC D1B8B019
Accurately ripped (confidence 26) [76ECDE24] (AR v2)
Copy OK

Track 8 Filename D:\flac rips\08 - Cordoba.wav Peak level 60.9 %
Extraction speed 1.9 X
Track quality 100.0 %
Test CRC 814CE97C
Copy CRC 814CE97C
Accurately ripped (confidence 26) [027E2C16] (AR v2)
Copy OK

Track 9 Filename D:\flac rips\09 - Halfaouine.wav Peak level 60.9 %
Extraction speed 1.7 X
Track quality 100.0 %
Test CRC 784C5CF3
Copy CRC 784C5CF3
Accurately ripped (confidence 25) [C16305C4] (AR v2)
Copy OK

Track 10 Filename D:\flac rips\10 - La chambre, var..wav Peak level 60.9 %
Extraction speed 1.9 X
Track quality 100.0 %
Test CRC F39EC901
Copy CRC F39EC901
Accurately ripped (confidence 27) [182DBB29] (AR v2)
Copy OK

Track 11 Filename D:\flac rips\11 - Zarabanda.wav Peak level 60.9 %
Extraction speed 2.0 X
Track quality 100.0 %
Test CRC 9178D70C
Copy CRC 9178D70C
Accurately ripped (confidence 28) [C1E8CD14] (AR v2)
Copy OK

Track 12 Filename D:\flac rips\12 - Ete Andalous.wav Peak level 60.9 %
Extraction speed 2.0 X
Track quality 99.9 %
Test CRC 1BDDA96F
Copy CRC 1BDDA96F
Accurately ripped (confidence 27) [A7F1CA0D] (AR v2)
Copy OK

Track 13 Filename D:\flac rips\13 - Vague, var..wav Peak level 54.2 %
Extraction speed 1.9 X
Track quality 100.0 %
Test CRC 92B5E789
Copy CRC 92B5E789
Accurately ripped (confidence 27) [599FEFB3] (AR v2)
Copy OK

All tracks accurately ripped

No errors occurred

End of status report

==== Log checksum C9D5812A1891A84D3D316B792A338F87512235D91557ABFCA8F0874618E7A243 ====

Analyzed: Anouar Brahem / Le voyage de Sahar [ECM 1915]

DR Peak RMS Duration Track

DR12 -4.30 dB -19.81 dB 6:33 01-Sur le fleuve
DR11 -4.30 dB -18.44 dB 6:55 02-Le voyage de Sahar
DR14 -4.30 dB -21.31 dB 5:48 03-L'au be
DR9 -4.30 dB -17.04 dB 6:19 04-Vague-E la nave va
DR13 -4.30 dB -21.67 dB 4:35 05-Les jardins de Ziryab
DR10 -4.30 dB -17.22 dB 3:13 06-Nuba
DR11 -4.30 dB -18.94 dB 5:01 07-La chambre
DR11 -4.30 dB -18.43 dB 5:31 08-Cordoba
DR11 -4.30 dB -18.77 dB 2:07 09-Halfaouine
DR11 -4.30 dB -17.95 dB 3:48 10-La chambre, var.
DR8 -4.30 dB -15.39 dB 4:27 11-Zarabanda
DR11 -4.30 dB -19.21 dB 7:06 12-Ete Andalous
DR10 -5.31 dB -18.14 dB 2:19 13-Vague, var.

Number of tracks: 13
Official DR value: DR11

Samplerate: 44100 Hz
Channels: 2
Bits per sample: 16
Bitrate: 497 kbps
Codec: FLAC

Anouar Brahem - Le Voyage De Sahar (2006) {ECM 1915} [Re-Up]

Anouar Brahem - Le Voyage De Sahar (2006) {ECM 1915} [Re-Up]

Anouar Brahem - Le Voyage De Sahar (2006) {ECM 1915} [Re-Up]

Rip by jlgt


DOWNLOAD LINKS:
Buy Premium To Support Me & Get Resumable Support & Max Speed


Links are Interchangeable - No Password - Single Extraction

Direct Download

Tags: Anouar, Brahem, Voyage

Anouar Brahem - Le Voyage De Sahar (2006) {ECM 1915} [Re-Up] Download via Hotfile Rapidshare Fileserve Megaupload & FileSonic, Anouar Brahem - Le Voyage De Sahar (2006) {ECM 1915} [Re-Up] free torrent downloads included crack, serial, keygen.


Attention!Information

Members of Guest cannot leave comments.