Martin Rev - See Me Ridin' (1996)

Download Now

Martin Rev - See Me Ridin' (1996)

Martin Rev - See Me Ridin' (1996)
Electronic | 1cd | EAC Rip | Flac + Cue + Log | covers
ROIR RUSCD8220 | rel: 1996 | 185Mb

On Martin Rev's 1996 solo album, See Me Ridin', the co-founder of the legendary electro-rock band Suicide steps out on his own, and offers 16 tracks of minimalist bubblegum power pop. But don't worry longtime Suicide fans, drum machines, Rev's trademark synthesizers, and his half-sung/spoken vocals are the basis for each song, while Suicide's hypnotizing repetition is used to great effect as well.
Although a wide variety of musical artists and styles come to mind when listening to the album (Buddy Holly, Guided by Voices, Legendary Pink Dots, and David Lynch-like soundscapes), it's still unmistakably Martin Rev. What carries the compositions is Rev's strong sense of melodicism -- "Pillars," "Be Mine," "Secret Teardrops," and the title track contain such strong melodies that they sound hauntingly familiar. Attention industrial/techno-heads, it's time to get reacquainted with one of the genre's founders...Martin Rev. ~Allmusic

Track listing
1. See Me Ridin - 1:51
2. Pillars - 1:33
3. I Heard Your Name - 1:02
4. No One Knows - 1:30
5. Be Mine - 1:41
6. Ten Two - 1:34
7. Small Talk - 2:08
8. Secret Teardrops - 1:45
9. I Made You Cry - 1:18
10. Here We Go - 1:40
11. Mari Go Round. 4:45
12. Hop And Scotch - 1:53
13. Told The Moon - 1:51
14. Yours Tonight - 1:53
15. Tell Me Why - 1:18
16. Post Card - 1:29
~ (38:32)

Exact Audio Copy V0.99 prebeta 3 from 28. July 2007

EAC extraction logfile from 14. October 2009, 23:21

Martin Rev / See Me Riding

Used drive : HL-DT-STDVDRAM GSA-T10N Adapter: 1 ID: 0

Read mode : Secure
Utilize accurate stream : Yes
Defeat audio cache : Yes
Make use of C2 pointers : No

Read offset correction

: 667
Overread into Lead-In and Lead-Out : No
Fill up missing offset samples with silence : Yes
Delete leading and trailing silent blocks : No
Null samples used in CRC calculations : Yes
Used interface
: Native Win32 interface for Win NT & 2000

Used output format : User Defined Encoder
Selected bitrate : 128 kBit/s
Quality : High
Add ID3 tag : No
Command line compressor : C:\Program Files\Exact Audio Copy\Flac\flac.exe
Additional command line options : -8 -V %s

TOC of the extracted CD Track | Start | Length | Start sector | End sector
--1 | 0:00.30 | 1:51.36 | 30 | 8390 2 | 1:51.66 | 2:33.60 | 8391 | 19925 3 | 4:25.51 | 2:02.20 | 19926 | 29095 4 | 6:27.71 | 2:30.14 | 29096 | 40359 5 | 8:58.10 | 1:42.37 | 40360 | 48046 6 | 10:40.47 | 1:33.37 | 48047 | 55058 7 | 12:14.09 | 2:08.13 | 55059 | 64671 8 | 14:22.22 | 2:44.30 | 64672 | 77001 9 | 17:06.52 | 2:18.63 | 77002 | 87414
10 | 19:25.40 | 1:41.44 | 87415 | 95033
11 | 21:07.09 | 5:00.17 | 95034 | 117550
12 | 26:07.26 | 1:52.73 | 117551 | 126023
13 | 28:00.24 | 1:51.37 | 126024 | 134385
14 | 29:51.61 | 3:52.70 | 134386 | 151855
15 | 33:44.56 | 3:18.73 | 151856 | 166778
16 | 37:03.54 | 1:28.64 | 166779 | 173442

Range status and errors

Selected range Filename E:\music\раздачи музыки на torrents\Martin Rev\Martin Rev 1996 See Me Ridin'\Martin Rev - Unknown Title.wav Peak level 100.0 %
Range quality 100.0 %
Test CRC 352F3D21
Copy CRC 352F3D21
Copy OK

No errors occurred


AccurateRip summary

Track 1 not present in database
Track 2 not present in database
Track 3 not present in database
Track 4 not present in database
Track 5 not present in database
Track 6 not present in database
Track 7 not present in database
Track 8 not present in database
Track 9 not present in database
Track 10 not present in database
Track 11 not present in database
Track 12 not present in database
Track 13 not present in database
Track 14 not present in database
Track 15 not present in database
Track 16 not present in database

None of the tracks are present in the AccurateRip database

End of status report

[CUETools log; Date: 2015.06.29. 9:22:02; Version: 2.1.5]
Pregap length 00:00:30.
[CTDB TOCID: 1zEvggYFn6XamWce3IDzItXDfdo-] found.
Track | CTDB Status
1 | (1/1) Accurately ripped
2 | (1/1) Accurately ripped
3 | (1/1) Accurately ripped
4 | (1/1) Accurately ripped
5 | (1/1) Accurately ripped
6 | (1/1) Accurately ripped
7 | (1/1) Accurately ripped
8 | (1/1) Accurately ripped
9 | (1/1) Accurately ripped
10 | (1/1) Accurately ripped
11 | (1/1) Accurately ripped
12 | (1/1) Accurately ripped
13 | (1/1) Accurately ripped
14 | (1/1) Accurately ripped
15 | (1/1) Accurately ripped
16 | (1/1) Accurately ripped
[AccurateRip ID: 0015497f-0103c23e-dc090810] found.
Track [ CRC | V2 ] Status
01 [216e5666|430040e9] (0+2/2) Accurately ripped
02 [c2947e8a|ca7d5964] (0+2/2) Accurately ripped
03 [59e91889|dac7db31] (0+2/2) Accurately ripped
04 [6ab05c65|c173447b] (0+2/2) Accurately ripped
05 [e91bed13|be0e0429] (0+2/2) Accurately ripped
06 [d0cb5d63|98a8ff8d] (0+2/2) Accurately ripped
07 [d91b3afb|29eef145] (0+2/2) Accurately ripped
08 [d9f909e1|76fee236] (0+2/2) Accurately ripped
09 [45694ac8|2f962b70] (0+2/2) Accurately ripped
10 [371b3179|8e9088bf] (1+1/2) Accurately ripped
11 [1ff5972e|9d836314] (1+1/2) Accurately ripped
12 [777f1085|28e2f673] (1+1/2) Accurately ripped
13 [2c3570e3|a1ce05d3] (1+1/2) Accurately ripped
14 [64b0ac29|1a6113ad] (1+1/2) Accurately ripped
15 [7547f58d|a1c778ed] (1+1/2) Accurately ripped
16 [1517ab23|c4d66fcc] (1+1/2) Accurately ripped

Track Peak [ CRC32 ] [W/O NULL] [ LOG ]
-- 100,0 [352F3D21] [918CEE71] CRC32
01 77,1 [2A72A4FE] [76A553A0]
02 100,0 [2FA89DFC] [1C344656]
03 93,2 [8BB26CFE] [D0ED5DE3]
04 94,0 [E809F0B1] [3F7978FB]
05 100,0 [139133CF] [E5009CC9]
06 100,0 [CB9A7450] [C20CFA5B]
07 95,6 4BD548D 07F5D39
08 86,2 [26F345B0] [85E1A6FC]
09 81,8 [C44956F1] [0A08B0CF]
10 100,0 [64609C7C] [6D117DA5]
11 83,5 [4D94CD32] 698FB3E
12 95,6 [00524A52] 40D6DB4
13 78,9 [33BDCEC0] [48115E39]
14 94,5 [5054ABB5] CF542E3
15 98,5 5BB6C2A [681A83F2]
16 98,0 [F71DA906] [942CAA11]

Thx to glebchic
DOWNLOAD LINKS:
Buy Premium To Support Me & Get Resumable Support & Max Speed


Links are Interchangeable - No Password - Single Extraction

Direct Download

Tags: Martin

Martin Rev - See Me Ridin' (1996) Download via Hotfile Rapidshare Fileserve Megaupload & FileSonic, Martin Rev - See Me Ridin' (1996) free torrent downloads included crack, serial, keygen.


Attention!Information

Members of Guest cannot leave comments.