Hypercolor - Hypercolor (2015) {Tzadik TZ 7811}

Download Now


Hypercolor - Hypercolor (2015) {Tzadik TZ 7811}
Hypercolor - Hypercolor (2015) {Tzadik TZ 7811}
EAC rip (secure mode) | FLAC (tracks)+CUE+LOG -> 353 Mb | MP3 @320 -> 119 Mb
Full Artwork @ 600 dpi (png) -> 140 Mb | 5% repair rar
© 2015 Tzadik | TZ 7811 | Tzadik Spotlight Series
Jazz / Jazz Rock / Avant-Pop / Experimental

"A crazy collaborative jazz-rock unit out of the new generation of Downtown improvisers, Hypercolor is a bizarre trio that blends Beef- heart, Sonny Sharrock and '80s punk with contemporary classical orchestral textures, spastic world music rhythms and noise improvisation. Sonic madness featuring the twisted guitar of Eyal Maoz, the deep toned bass of James Ilgenfritz and the grooving drums of African music aficionado Lukas Ligeti."

Hypercolor - Hypercolor (2015) {Tzadik TZ 7811}


AAJ INFO

Personnel:
Lukas Ligeti: Drums
Eyal Maoz: Guitar
James Ilgenfritz: Bass

tracklist:
01 - Squeaks
02 - Chen
03 - Forget
04 - Ernesto, Do You Have A Cotton Box
05 - Glowering
06 - Palace
07 - Far Connection
08 - Transist
09 - Little Brother
10 - Quixotic

Exact Audio Copy V1.0 beta 6 from 9. April 2015

EAC extraction logfile from 7. July 2015, 17:55

Hypercolor / Hypercolor

Used drive : ATAPI iHAS124 B Adapter: 2 ID: 0

Read mode : Secure
Utilize accurate stream : Yes
Defeat audio cache : Yes
Make use of C2 pointers : No

Read offset correction

: 6
Overread into Lead-In and Lead-Out : No
Fill up missing offset samples with silence : Yes
Delete leading and trailing silent blocks : No
Null samples used in CRC calculations : Yes
Used interface
: Installed external ASPI interface
Gap handling
: Appended to previous track

Used output format : User Defined Encoder
Selected bitrate : 1024 kBit/s
Quality : High
Add ID3 tag : No
Command line compressor : C:\Program Files (x86)\FLAC Frontend\tools\flac.exe
Additional command line options : -8 -V -T "ARTIST=%artist%" -T "TITLE=%title%" -T "ALBUM=%albumtitle%" -T "DATE=%year%" -T "TRACKNUMBER=%tracknr%" -T "TOTALTRACKS=%numtracks%" -T "GENRE=%genre%" -T "ALBUMARTIST=%albumartist%" -T "ALBUM ARTIST=%albumartist%" -T "COMMENT=EAC Secure Mode, Test & Copy, AccurateRip, FLAC -8" %source%

TOC of the extracted CD Track | Start | Length | Start sector | End sector
--1 | 0:00.00 | 2:15.63 | 0 | 10187 2 | 2:15.63 | 4:08.18 | 10188 | 28805 3 | 6:24.06 | 5:24.01 | 28806 | 53106 4 | 11:48.07 | 4:28.04 | 53107 | 73210 5 | 16:16.11 | 5:08.11 | 73211 | 96321 6 | 21:24.22 | 2:16.20 | 96322 | 106541 7 | 23:40.42 | 3:53.22 | 106542 | 124038 8 | 27:33.64 | 5:23.50 | 124039 | 148313 9 | 32:57.39 | 10:50.49 | 148314 | 197112
10 | 43:48.13 | 6:04.50 | 197113 | 224462

Track 1 Filename D:\_EAC\Hypercolor - Hypercolor (2015) [FLAC] {Tzadik TZ 7811}\01 - Squeaks.wav Pre-gap length 0:00:02.00 Peak level 98.8 %
Extraction speed 2.9 X
Track quality 100.0 %
Test CRC BE42D303
Copy CRC BE42D303
Track not present in AccurateRip database
Copy OK

Track 2 Filename D:\_EAC\Hypercolor - Hypercolor (2015) [FLAC] {Tzadik TZ 7811}\02 - Chen.wav Peak level 98.8 %
Extraction speed 3.7 X
Track quality 100.0 %
Test CRC 31200D1C
Copy CRC 31200D1C
Track not present in AccurateRip database
Copy OK

Track 3 Filename D:\_EAC\Hypercolor - Hypercolor (2015) [FLAC] {Tzadik TZ 7811}\03 - Forget.wav Peak level 98.8 %
Extraction speed 3.6 X
Track quality 99.9 %
Test CRC FADDE43E
Copy CRC FADDE43E
Track not present in AccurateRip database
Copy OK

Track 4 Filename D:\_EAC\Hypercolor - Hypercolor (2015) [FLAC] {Tzadik TZ 7811}\04 - Ernesto, Do You Have A Cotton Box.wav Peak level 98.8 %
Extraction speed 4.5 X
Track quality 100.0 %
Test CRC 56B2F391
Copy CRC 56B2F391
Track not present in AccurateRip database
Copy OK

Track 5 Filename D:\_EAC\Hypercolor - Hypercolor (2015) [FLAC] {Tzadik TZ 7811}\05 - Glowering.wav Peak level 98.8 %
Extraction speed 5.0 X
Track quality 100.0 %
Test CRC 4828F894
Copy CRC 4828F894
Track not present in AccurateRip database
Copy OK

Track 6 Filename D:\_EAC\Hypercolor - Hypercolor (2015) [FLAC] {Tzadik TZ 7811}\06 - Palace.wav Peak level 98.8 %
Extraction speed 4.6 X
Track quality 100.0 %
Test CRC DCA0A02C
Copy CRC DCA0A02C
Track not present in AccurateRip database
Copy OK

Track 7 Filename D:\_EAC\Hypercolor - Hypercolor (2015) [FLAC] {Tzadik TZ 7811}\07 - Far Connection.wav Peak level 98.8 %
Extraction speed 5.2 X
Track quality 100.0 %
Test CRC 7AEED435
Copy CRC 7AEED435
Track not present in AccurateRip database
Copy OK

Track 8 Filename D:\_EAC\Hypercolor - Hypercolor (2015) [FLAC] {Tzadik TZ 7811}\08 - Transist.wav Peak level 98.8 %
Extraction speed 4.8 X
Track quality 99.9 %
Test CRC 11B6DEE0
Copy CRC 11B6DEE0
Track not present in AccurateRip database
Copy OK

Track 9 Filename D:\_EAC\Hypercolor - Hypercolor (2015) [FLAC] {Tzadik TZ 7811}\09 - Little Brother.wav Peak level 98.8 %
Extraction speed 6.4 X
Track quality 100.0 %
Test CRC 4E58664A
Copy CRC 4E58664A
Track not present in AccurateRip database
Copy OK

Track 10 Filename D:\_EAC\Hypercolor - Hypercolor (2015) [FLAC] {Tzadik TZ 7811}\10 - Quixotic.wav Peak level 98.8 %
Extraction speed 6.6 X
Track quality 100.0 %
Test CRC 0F8F9DBD
Copy CRC 0F8F9DBD
Track not present in AccurateRip database
Copy OK

None of the tracks are present in the AccurateRip database

No errors occurred

End of status report

==== Log checksum 968560B0BAAE9BC2C9C1893877FA3689AF432C651BCB2CE169CADA71D0AFC61B ====

Hypercolor - Hypercolor (2015) {Tzadik TZ 7811}

Hypercolor - Hypercolor (2015) {Tzadik TZ 7811}

DOWNLOAD LINKS
(Premium Recommended)


Links are Interchangeable - No Password - Single Extraction

Direct Download

Tags: Hypercolor, Hypercolor, Tzadik

Hypercolor - Hypercolor (2015) {Tzadik TZ 7811} Download via Hotfile Rapidshare Fileserve Megaupload & FileSonic, Hypercolor - Hypercolor (2015) {Tzadik TZ 7811} free torrent downloads included crack, serial, keygen.


Attention!Information

Members of Guest cannot leave comments.