Canned Heat with John Lee Hooker - Carnegie Hall 1971 (2015) {Cleopatra Records}

Download Now


Canned Heat with John Lee Hooker - Carnegie Hall 1971 (2015) {Cleopatra Records}
Canned Heat with John Lee Hooker - Carnegie Hall 1971 (2015) {Cleopatra Records}
EAC rip (secure mode) | FLAC (tracks)+CUE+LOG -> 334 Mb | MP3 @320 -> 119 Mb
Full Artwork @ 600 dpi (jpg) -> 25 Mb | 5% repair rar
© 2015 Cleopatra Records | CLP 2103
Rock / Blues Rock / Blues

"Canned Heat is best known for the hits "Going Up The Country" and "On The Road Again," but this was mainly a blues rock band, and they put out an album with John Lee Hooker titled Hooker ‘N' Heat in early 1971. The album was all John Lee Hooker material, and was the last studio album to feature Alan Wilson, who died of a drug overdose in late 1970 (a member of the 27 Club). In the spring of 1971, Canned Heat performed with John Lee Hooker at Carnegie Hall. Part of the show was recorded, and now you can hear it with the release of Carnegie Hall 1971. This CD features liner notes by Dave Thompson, with portions of an interview with drummer Fito de a Parra."

tracklist:
01 - Framed
02 - Let's Work Together
03 - Hey Babe
04 - Shake 'n' Boogie
05 - Back Door Man
06 - Tease Me Baby (bonus track)

Exact Audio Copy V1.0 beta 4 from 7. December 2014

EAC extraction logfile from 11. May 2015, 21:44

Canned Heat with John Lee Hooker / Carnegie Hall 1971

Used drive : TSSTcorpCDDVDW SN-208FB Adapter: 1 ID: 0

Read mode : Secure
Utilize accurate stream : Yes
Defeat audio cache : Yes
Make use of C2 pointers : No

Read offset correction

: 6
Overread into Lead-In and Lead-Out : No
Fill up missing offset samples with silence : Yes
Delete leading and trailing silent blocks : No
Null samples used in CRC calculations : Yes
Used interface
: Native Win32 interface for Win NT & 2000
Gap handling
: Appended to previous track

Used output format : User Defined Encoder
Selected bitrate : 1024 kBit/s
Quality : High
Add ID3 tag : No
Command line compressor : C:\Program Files (x86)\Kodeki za Glasbo\FLAC\flac.exe
Additional command line options : -8 -V -T "ARTIST=%artist%" -T "TITLE=%title%" -T "ALBUM=%albumtitle%" -T "DATE=%year%" -T "TRACKNUMBER=%tracknr%" -T "TOTALTRACKS=%numtracks%" -T "GENRE=%genre%" -T "ALBUMARTIST=%albumartist%" -T "ALBUM ARTIST=%albumartist%" -T "COMMENT=EAC Secure Mode, Test & Copy, AccurateRip, FLAC -8" %source%

TOC of the extracted CD Track | Start | Length | Start sector | End sector
--1 | 0:00.00 | 6:09.43 | 0 | 27717 2 | 6:09.43 | 4:16.47 | 27718 | 46964 3 | 10:26.15 | 5:46.27 | 46965 | 72941 4 | 16:12.42 | 19:52.07 | 72942 | 162348 5 | 36:04.49 | 8:47.09 | 162349 | 201882 6 | 44:51.58 | 4:59.51 | 201883 | 224358

Track 1 Filename M:\2. my rip in preparation\3 - in treatment\Canned Heat with John Lee Hooker - Carnegie Hall 1971 (2015) [FLAC] {Cleopatra CLP 2103}\01 - Framed.wav Pre-gap length 0:00:02.00 Peak level 96.6 %
Extraction speed 2.7 X
Track quality 100.0 %
Test CRC 9389A78E
Copy CRC 9389A78E
Track not present in AccurateRip database
Copy OK

Track 2 Filename M:\2. my rip in preparation\3 - in treatment\Canned Heat with John Lee Hooker - Carnegie Hall 1971 (2015) [FLAC] {Cleopatra CLP 2103}\02 - Let's Work Together.wav Peak level 96.6 %
Extraction speed 2.4 X
Track quality 99.9 %
Test CRC 5E88DF37
Copy CRC 5E88DF37
Track not present in AccurateRip database
Copy OK

Track 3 Filename M:\2. my rip in preparation\3 - in treatment\Canned Heat with John Lee Hooker - Carnegie Hall 1971 (2015) [FLAC] {Cleopatra CLP 2103}\03 - Hey Babe.wav Peak level 96.6 %
Extraction speed 3.3 X
Track quality 100.0 %
Test CRC 17AABD7B
Copy CRC 17AABD7B
Track not present in AccurateRip database
Copy OK

Track 4 Filename M:\2. my rip in preparation\3 - in treatment\Canned Heat with John Lee Hooker - Carnegie Hall 1971 (2015) [FLAC] {Cleopatra CLP 2103}\04 - Shake 'n' Boogie.wav Peak level 96.6 %
Extraction speed 4.2 X
Track quality 100.0 %
Test CRC 5A1D03EF
Copy CRC 5A1D03EF
Track not present in AccurateRip database
Copy OK

Track 5 Filename M:\2. my rip in preparation\3 - in treatment\Canned Heat with John Lee Hooker - Carnegie Hall 1971 (2015) [FLAC] {Cleopatra CLP 2103}\05 - Back Door Man.wav Peak level 96.6 %
Extraction speed 4.8 X
Track quality 100.0 %
Test CRC 87D255C5
Copy CRC 87D255C5
Track not present in AccurateRip database
Copy OK

Track 6 Filename M:\2. my rip in preparation\3 - in treatment\Canned Heat with John Lee Hooker - Carnegie Hall 1971 (2015) [FLAC] {Cleopatra CLP 2103}\06 - Tease Me Baby.wav Peak level 79.4 %
Extraction speed 4.8 X
Track quality 100.0 %
Test CRC AAE6B48E
Copy CRC AAE6B48E
Track not present in AccurateRip database
Copy OK

None of the tracks are present in the AccurateRip database

No errors occurred

End of status report

- CUETools DB Plugin V2.1.4

[CTDB TOCID: vCcS1bQOCYqybvKDRwq.NKIUJ6w-] found
Submit result: vCcS1bQOCYqybvKDRwq.NKIUJ6w- has been confirmed
Track | CTDB Status
1 | (1/1) Accurately ripped
2 | (1/1) Accurately ripped
3 | (1/1) Accurately ripped
4 | (1/1) Accurately ripped
5 | (1/1) Accurately ripped
6 | (1/1) Accurately ripped

==== Log checksum 79ECE775528D60DE71F976B388E84DFDD4C1DB7A15FFC2C9433886AAD6140FEE ====

Canned Heat with John Lee Hooker - Carnegie Hall 1971 (2015) {Cleopatra Records}

Canned Heat with John Lee Hooker - Carnegie Hall 1971 (2015) {Cleopatra Records}


All thanks goes to the original releaser!
Download Links:
(Premium Recommended)


All above links are interchangable. No password

Direct Download

Tags: Canned, Hooker, Carnegie, Cleopatra, Records

Canned Heat with John Lee Hooker - Carnegie Hall 1971 (2015) {Cleopatra Records} Download via Hotfile Rapidshare Fileserve Megaupload & FileSonic, Canned Heat with John Lee Hooker - Carnegie Hall 1971 (2015) {Cleopatra Records} free torrent downloads included crack, serial, keygen.


Attention!Information

Members of Guest cannot leave comments.