Frank Zappa - Dance Me This (2015) {Zappa Records}

Download Now


Frank Zappa - Dance Me This (2015) {Zappa Records}
Frank Zappa - Dance Me This (2015) {Zappa Records}
EAC rip (secure mode) | FLAC (tracks)+CUE+LOG -> 246 Mb | MP3 @320 -> 115 Mb
Full Artwork @ 600 dpi (png) -> 326 Mb | 5% repair rar
© 2015 Zappa Records / ZFT | ZR 20018
Rock / Experimental Rock / Avant-Garde / Jazz Rock / Synclavier

"Official Release #100. The LAST album by Frank Zappa. The last album that guitarist Frank Zappa worked on prior to his death in December 1993 will finally be released this June. Titled Dance Me This, the LP is considered the Rock and Roll Hall of Famer's 100th and final official release, ending a legacy that began with the Mothers of Invention's landmark 1966 album Freak Out! In talking to Guitar Magazine prior to his death at the age of 52, Zappa described his final LP as "a Synclavier album called Dance Me This, which is designed to be used by modern dance groups. It's probably not going to come out until next year," the Guardian reports. The album was ultimately shelved indefinitely, and while a steady stream of posthumous releases and reissues have satisfied Zappa fans in the following decades, Dance Me This was all but forgotten until Zappa's widow Gail Zappa began hinting at the final album's eventual arrival in 2011."

Frank Zappa - Dance Me This (2015) {Zappa Records}

"According to the Zappa Family Trust, Dance Me This is "the last title FZ finished in 1993 along with Trance-Fusion; the last chapter in his Master Work, Civilization Phaze III." "This is it. #100. The LAST album by Frank Zappa. Tap your foot algorithmically to this, " the estate adds. The album's title track reportedly features a recording of Tuvan "throat singers," members of a northern China tribe that Zappa accompanied with a Synclavier composition.

One of Rolling Stone's 100 Greatest Guitarist of All Time, Zappa switched to the Synclavier as his main compositional tool in 1984 with a pair of albums, Francesco Zappa and Boulez Conducts Zappa: The Perfect Stranger. Zappa continued to experiment with the pioneering electronic music device even as he battled terminal prostate cancer, resulting in both Dance Me This and 1994's Civilization Phaze III."


Frank Zappa - Dance Me This (2015) {Zappa Records}


More INFO

tracklist:
01 - Dance Me This
02 - Pachuco Gavotte
03 - Wolf Harbor
04 - Wolf Harbor II
05 - Wolf Harbor III
06 - Wolf Harbor IV
07 - Wolf Harbor V
08 - Goat Polo
09 - Rykoniki
10 - Piano
11 - Calculus

Exact Audio Copy V1.1 from 23. June 2015

EAC extraction logfile from 9. July 2015, 23:27

Frank Zappa / Dance Me This

Used drive : ATAPI iHAS124 B Adapter: 2 ID: 0

Read mode : Secure
Utilize accurate stream : Yes
Defeat audio cache : Yes
Make use of C2 pointers : No

Read offset correction

: 6
Overread into Lead-In and Lead-Out : No
Fill up missing offset samples with silence : Yes
Delete leading and trailing silent blocks : No
Null samples used in CRC calculations : Yes
Used interface
: Installed external ASPI interface
Gap handling
: Appended to previous track

Used output format : User Defined Encoder
Selected bitrate : 1024 kBit/s
Quality : High
Add ID3 tag : No
Command line compressor : C:\Program Files (x86)\FLAC Frontend\tools\flac.exe
Additional command line options : -8 -V -T "ARTIST=%artist%" -T "TITLE=%title%" -T "ALBUM=%albumtitle%" -T "DATE=%year%" -T "TRACKNUMBER=%tracknr%" -T "TOTALTRACKS=%numtracks%" -T "GENRE=%genre%" -T "ALBUMARTIST=%albumartist%" -T "ALBUM ARTIST=%albumartist%" -T "COMMENT=EAC Secure Mode, Test & Copy, AccurateRip, FLAC -8" %source%

TOC of the extracted CD Track | Start | Length | Start sector | End sector
--1 | 0:00.00 | 2:02.04 | 0 | 9153 2 | 2:02.04 | 3:26.49 | 9154 | 24652 3 | 5:28.53 | 8:02.06 | 24653 | 60808 4 | 13:30.59 | 6:52.52 | 60809 | 91760 5 | 20:23.36 | 6:09.19 | 91761 | 119454 6 | 26:32.55 | 3:38.25 | 119455 | 135829 7 | 30:11.05 | 3:08.72 | 135830 | 150001 8 | 33:20.02 | 3:04.14 | 150002 | 163815 9 | 36:24.16 | 1:58.54 | 163816 | 172719
10 | 38:22.70 | 7:08.58 | 172720 | 204877
11 | 45:31.53 | 2:49.00 | 204878 | 217552

Track 1 Filename D:\_EAC\Frank Zappa - Dance Me This (2015) [FLAC] {Zappa Records}\01 - Dance Me This.wav Pre-gap length 0:00:02.00 Peak level 94.3 %
Extraction speed 2.8 X
Track quality 100.0 %
Test CRC FFE85483
Copy CRC FFE85483
Track not present in AccurateRip database
Copy OK

Track 2 Filename D:\_EAC\Frank Zappa - Dance Me This (2015) [FLAC] {Zappa Records}\02 - Pachuco Gavotte.wav Peak level 93.3 %
Extraction speed 3.5 X
Track quality 100.0 %
Test CRC 5E9D45CB
Copy CRC 5E9D45CB
Track not present in AccurateRip database
Copy OK

Track 3 Filename D:\_EAC\Frank Zappa - Dance Me This (2015) [FLAC] {Zappa Records}\03 - Wolf Harbor.wav Peak level 94.4 %
Extraction speed 3.9 X
Track quality 99.9 %
Test CRC 69876584
Copy CRC 69876584
Track not present in AccurateRip database
Copy OK

Track 4 Filename D:\_EAC\Frank Zappa - Dance Me This (2015) [FLAC] {Zappa Records}\04 - Wolf Harbor II.wav Peak level 94.3 %
Extraction speed 4.9 X
Track quality 100.0 %
Test CRC C650D2F3
Copy CRC C650D2F3
Track not present in AccurateRip database
Copy OK

Track 5 Filename D:\_EAC\Frank Zappa - Dance Me This (2015) [FLAC] {Zappa Records}\05 - Wolf Harbor III.wav Peak level 94.4 %
Extraction speed 5.3 X
Track quality 100.0 %
Test CRC 75EAD81B
Copy CRC 75EAD81B
Track not present in AccurateRip database
Copy OK

Track 6 Filename D:\_EAC\Frank Zappa - Dance Me This (2015) [FLAC] {Zappa Records}\06 - Wolf Harbor IV.wav Peak level 94.4 %
Extraction speed 5.3 X
Track quality 100.0 %
Test CRC 5DD629E2
Copy CRC 5DD629E2
Track not present in AccurateRip database
Copy OK

Track 7 Filename D:\_EAC\Frank Zappa - Dance Me This (2015) [FLAC] {Zappa Records}\07 - Wolf Harbor V.wav Peak level 93.3 %
Extraction speed 5.3 X
Track quality 100.0 %
Test CRC FF958D85
Copy CRC FF958D85
Track not present in AccurateRip database
Copy OK

Track 8 Filename D:\_EAC\Frank Zappa - Dance Me This (2015) [FLAC] {Zappa Records}\08 - Goat Polo.wav Peak level 94.4 %
Extraction speed 5.5 X
Track quality 100.0 %
Test CRC 3629B4D8
Copy CRC 3629B4D8
Track not present in AccurateRip database
Copy OK

Track 9 Filename D:\_EAC\Frank Zappa - Dance Me This (2015) [FLAC] {Zappa Records}\09 - Rykoniki.wav Peak level 94.4 %
Extraction speed 5.1 X
Track quality 100.0 %
Test CRC 2EC21DC8
Copy CRC 2EC21DC8
Track not present in AccurateRip database
Copy OK

Track 10 Filename D:\_EAC\Frank Zappa - Dance Me This (2015) [FLAC] {Zappa Records}\10 - Piano.wav Peak level 94.1 %
Extraction speed 6.5 X
Track quality 100.0 %
Test CRC 4A5BE6DE
Copy CRC 4A5BE6DE
Track not present in AccurateRip database
Copy OK

Track 11 Filename D:\_EAC\Frank Zappa - Dance Me This (2015) [FLAC] {Zappa Records}\11 - Calculus.wav Peak level 94.4 %
Extraction speed 4.4 X
Track quality 99.9 %
Test CRC 5D993B0E
Copy CRC 5D993B0E
Track not present in AccurateRip database
Copy OK

None of the tracks are present in the AccurateRip database

No errors occurred

End of status report

==== Log checksum C3F645F7379E33003AFCD113B3B3D0206E1E347B8C86E4A1EF8605EAEE2F4CDD ====

Frank Zappa - Dance Me This (2015) {Zappa Records}

Frank Zappa - Dance Me This (2015) {Zappa Records}


DOWNLOAD:
Buy Premium From My Links To Get Resumable Support & Max Speed & To Support Me


Links are Interchangeable - No Password

Direct Download

Tags: Records

Frank Zappa - Dance Me This (2015) {Zappa Records} Download via Hotfile Rapidshare Fileserve Megaupload & FileSonic, Frank Zappa - Dance Me This (2015) {Zappa Records} free torrent downloads included crack, serial, keygen.


Attention!Information

Members of Guest cannot leave comments.