Alois Hába - Violin Works (1997)

Download Now

Alois Hába - Violin Works (1997)

Alois Hába - Violin Works (1997)
Classical/Early 20th Century | FLAC lossless | cuesheets+log | covers+booklet | 66m38s | 306mb
Label: Supraphon | cat. no. SU 3335-2 131

The quarter-tone piano in action in track 10. Quite spectacular if you've never heard it before.

Tracks:

01. Cavatina on the theme H-A-B-A for violin and piano - Andante [0:03:53.00]
02. Idyll for violin and piano - Allegretto scherzando [0:02:16.86]
03. Idyll for violin and piano - Andante sostenuto [0:03:43.46]
04. Gondolier for violin and piano - Adagio [0:03:48.00]
05. Souvenir a l'heure de danse for violin and piano [0:04:18.10]
06. Cyclic composition for violin and piano I. Allegro comodo [0:03:06.69]
07. Cyclic composition for violin and piano II. Andante affettuoso [0:03:38.53]
08. Cyclic composition for violin and piano III. Presto assai [0:03:39.66]
09. Fantasy for violin solo in quarter-tone system op. 9a [0:10:11.00]
10. Fantasy for violin and quarter-tone piano op. 21 [0:16:54.00]
11. Suite for violin solo in quarter-tone system op. 93 - I. Allegretto Energico [0:02:28.37]
12. Suite for violin solo in quarter-tone system op. 93 - II. Andante cantabile [0:05:17.36]
13. Suite for violin solo in quarter-tone system op. 93 - III. Allegro scherzando [0:03:23.53]

Performer:

Antonín Novák - violin
Jan Vedra - piano (tr.1-8)
Vojtéch Spurný - quarter-tone piano (tr.10)

Exact Audio Copy V1.0 beta 3 from 29. August 2011

EAC extraction logfile from 11. July 2015, 17:06

Alois Haba / Violin Works

Used drive : TSSTcorpCDDVDW SH-216AB Adapter: 0 ID: 0

Read mode : Secure
Utilize accurate stream : Yes
Defeat audio cache : Yes
Make use of C2 pointers : No

Read offset correction

: 6
Overread into Lead-In and Lead-Out : No
Fill up missing offset samples with silence : Yes
Delete leading and trailing silent blocks : No
Null samples used in CRC calculations : Yes
Used interface
: Native Win32 interface for Win NT & 2000
Gap handling
: Appended to previous track

Used output format : User Defined Encoder
Selected bitrate : 768 kBit/s
Quality : High
Add ID3 tag : No
Command line compressor : C:\Program Files (x86)\FLAC Frontend\tools\flac.exe
Additional command line options : -8 -V -T "ARTIST=%artist%" -T "TITLE=%title%" -T "ALBUM=%albumtitle%" -T "DATE=%year%" -T "TRACKNUMBER=%tracknr%" -T "GENRE=%genre%" -T "PERFORMER=%albuminterpret%" -T "COMPOSER=%composer%" %haslyrics%--tag-from-file=LYRICS="%lyricsfile%"%haslyrics% -T "ALBUMARTIST=%albumartist%" -T "DISCNUMBER=%cdnumber%" -T "TOTALDISCS=%totalcds%" -T "TOTALTRACKS=%numtracks%" -T "COMMENT=%comment%" %source% -o %dest%

TOC of the extracted CD Track | Start | Length | Start sector | End sector
--1 | 0:00.32 | 3:53.00 | 32 | 17506 2 | 3:53.32 | 2:16.65 | 17507 | 27771 3 | 6:10.22 | 3:43.35 | 27772 | 44531 4 | 9:53.57 | 3:48.00 | 44532 | 61631 5 | 13:41.57 | 4:18.08 | 61632 | 80989 6 | 17:59.65 | 3:06.52 | 80990 | 94991 7 | 21:06.42 | 3:38.40 | 94992 | 111381 8 | 24:45.07 | 3:39.50 | 111382 | 127856 9 | 28:24.57 | 10:11.00 | 127857 | 173681
10 | 38:35.57 | 16:54.00 | 173682 | 249731
11 | 55:29.57 | 2:28.28 | 249732 | 260859
12 | 57:58.10 | 5:17.27 | 260860 | 284661
13 | 63:15.37 | 3:23.40 | 284662 | 299926

Track 1 Filename C:\Users\Severin\02.POST\Alois Haba\violin works\01 Cavatina on the theme H-A-B-A for violin and piano - Andante.wav Pre-gap length 0:00:02.42 Peak level 78.5 %
Extraction speed 1.6 X
Track quality 100.0 %
Copy CRC 370D5DDE
Accurately ripped (confidence 1) [DDA1F8D5] (AR v1)
Copy OK

Track 2 Filename C:\Users\Severin\02.POST\Alois Haba\violin works\02 Idyll for violin and piano - Allegretto scherzando.wav Pre-gap length 0:00:05.09 Peak level 63.6 %
Extraction speed 1.9 X
Track quality 100.0 %
Copy CRC 2F4C420E
Accurately ripped (confidence 1) [147B7E0D] (AR v1)
Copy OK

Track 3 Filename C:\Users\Severin\02.POST\Alois Haba\violin works\03 Idyll for violin and piano - Andante sostenuto.wav Pre-gap length 0:00:05.66 Peak level 47.2 %
Extraction speed 2.0 X
Track quality 100.0 %
Copy CRC F331BB2E
Accurately ripped (confidence 1) [25E83171] (AR v1)
Copy OK

Track 4 Filename C:\Users\Severin\02.POST\Alois Haba\violin works\04 Gondolier for violin and piano - Adagio.wav Pre-gap length 0:00:03.20 Peak level 58.3 %
Extraction speed 2.0 X
Track quality 100.0 %
Copy CRC 563EB06C
Accurately ripped (confidence 1) [91D74113] (AR v1)
Copy OK

Track 5 Filename C:\Users\Severin\02.POST\Alois Haba\violin works\05 Souvenir a l'heure de danse for violin and piano.wav Pre-gap length 0:00:03.49 Peak level 75.8 %
Extraction speed 2.1 X
Track quality 100.0 %
Copy CRC 173C226F
Accurately ripped (confidence 1) [9670B02A] (AR v1)
Copy OK

Track 6 Filename C:\Users\Severin\02.POST\Alois Haba\violin works\06 Cyclic composition for violin and piano I. Allegro comodo.wav Pre-gap length 0:00:05.77 Peak level 72.2 %
Extraction speed 2.0 X
Track quality 100.0 %
Copy CRC 0E21F34C
Accurately ripped (confidence 1) [48DB9CC7] (AR v1)
Copy OK

Track 7 Filename C:\Users\Severin\02.POST\Alois Haba\violin works\07 Cyclic composition for violin and piano II. Andante affettuoso.wav Pre-gap length 0:00:03.13 Peak level 47.1 %
Extraction speed 2.1 X
Track quality 100.0 %
Copy CRC 89CD16B0
Accurately ripped (confidence 1) [C4B69FBF] (AR v1)
Copy OK

Track 8 Filename C:\Users\Severin\02.POST\Alois Haba\violin works\08 Cyclic composition for violin and piano III. Presto assai.wav Pre-gap length 0:00:02.82 Peak level 68.1 %
Extraction speed 2.0 X
Track quality 100.0 %
Copy CRC A4CFFBD9
Accurately ripped (confidence 1) [0580501D] (AR v1)
Copy OK

Track 9 Filename C:\Users\Severin\02.POST\Alois Haba\violin works\09 Fantasy for violin solo in quarter-tone system op. 9a.wav Pre-gap length 0:00:05.62 Peak level 71.2 %
Extraction speed 2.3 X
Track quality 100.0 %
Copy CRC 75B39D05
Accurately ripped (confidence 1) [679BF7A6] (AR v1)
Copy OK

Track 10 Filename C:\Users\Severin\02.POST\Alois Haba\violin works\10 Fantasy for violin and quarter-tone piano op. 21.wav Pre-gap length 0:00:06.02 Peak level 70.0 %
Extraction speed 2.3 X
Track quality 100.0 %
Copy CRC DC269438
Accurately ripped (confidence 1) [F6978133] (AR v1)
Copy OK

Track 11 Filename C:\Users\Severin\02.POST\Alois Haba\violin works\11 Suite for violin solo in quarter-tone system op. 93 - I. Allegretto Energico.wav Pre-gap length 0:00:05.82 Peak level 45.0 %
Extraction speed 1.6 X
Track quality 99.9 %
Copy CRC C2CACC51
Accurately ripped (confidence 1) [F349F565] (AR v1)
Copy OK

Track 12 Filename C:\Users\Severin\02.POST\Alois Haba\violin works\12 Suite for violin solo in quarter-tone system op. 93 - II. Andante cantabile.wav Pre-gap length 0:00:01.86 Peak level 33.4 %
Extraction speed 1.9 X
Track quality 99.9 %
Copy CRC 4A819C5D
Accurately ripped (confidence 1) [8761162A] (AR v1)
Copy OK

Track 13 Filename C:\Users\Severin\02.POST\Alois Haba\violin works\13 Suite for violin solo in quarter-tone system op. 93 - III. Allegro scherzando.wav Pre-gap length 0:00:04.60 Peak level 61.8 %
Extraction speed 1.7 X
Track quality 99.9 %
Copy CRC A4FBA312
Accurately ripped (confidence 1) [9AE04BCD] (AR v1)
Copy OK

All tracks accurately ripped

No errors occurred

End of status report

==== Log checksum 1A50A4DB033CCE6D950E56153BA2EDE2E93340FA2C71E62EC6739BD47EC81979 ====
DOWNLOAD LINKS:
Buy Premium To Support Me & Get Resumable Support & Max Speed


Links are Interchangeable - No Password - Single Extraction

Direct Download

Tags: Violin

Alois Hába - Violin Works (1997) Download via Hotfile Rapidshare Fileserve Megaupload & FileSonic, Alois Hába - Violin Works (1997) free torrent downloads included crack, serial, keygen.


Attention!Information

Members of Guest cannot leave comments.