Original Album Series: Terry Reid (2015)

Download Now

Original Album Series: Terry Reid (2015)

Original Album Series: Terry Reid (2015)
EAC | Flac(Image) + Cue + Log & MP3 CBR 320Kbps
5CD | Rhino / Warner, 0825646163960 | ~ 1419 or 590 Mb | Scans(png) -> 297 Mb
Rock / Blues Rock / Psychedelic Rock

"5CD set. Collects five of his original albums, in card LP replica sleeves! Features "Bang, Bang You're Terry Reid" (1968), "Terry Reid" (1969), "River" (1973), "Rogue Waves" (1979) and "The Driver" (1991)."

Original Album Series: Terry Reid (2015)

Terry Reid at Wiki | Terry Reid at Discogs | Terry Reid at Allmusic | Terry Reid HomePage

***********
Original Album Series: Terry Reid (2015):

Original Album Series: Terry Reid (2015)

CD01: Terry Reid - Bang, Bang You're Terry Reid (1968)
EAC | Flac(Image) + Cue + Log & MP3 CBR 320Kbps
Rock | Rhino / Warner, 0825646163960 | ~ 325 or 136 Mb

"Bang, Bang introduced a hard rocker whose eclecticism was both impressive and unnervingly inconsistent. The covers of "Season of the Witch" and "Summertime Blues" are overlong and dated, but the frenetic version of Cher's "Bang, Bang" is inspired, and the rendition of Gene Pitney's "Something's Gotten Hold of My Heart" shows his poppier roots. Over half of the material was penned by Reid, and while these compositions are sometimes generic, late-'60s hard rockers, he also shows a facility for Donavonesque folk-rock "("Sweater"") and impressive soul-rock vocalizing ("When I Get Home"). Originally not released in the U.K., it's ironically only available now as a U.K. import.


by Richie Unterberger, AMG
"


Tracklist:

01 Bang, Bang (My Baby Shot Me Down)
02 Tinker, Tailor
03 Erica
04 Without Expression
05 Sweater
06 Something's Gotten Hold Of My Heart
07 Season Of The Witch
08 Writing On The Wall / Summertime Blues
09 When You Get Home
10 Loving Time

Exact Audio Copy V1.1 from 23. June 2015

EAC extraction logfile from 4. July 2015, 12:19

Terry Reid / Bang, Bang You're Terry Reid

Used drive : PLEXTOR BD-R PX-B950SA Adapter: 1 ID: 1

Read mode : Secure
Utilize accurate stream : Yes
Defeat audio cache : Yes
Make use of C2 pointers : No

Read offset correction

: 6
Overread into Lead-In and Lead-Out : No
Fill up missing offset samples with silence : Yes
Delete leading and trailing silent blocks : No
Null samples used in CRC calculations : Yes
Used interface
: Native Win32 interface for Win NT & 2000

Used output format : Internal WAV Routines
Sample format : 44.100 Hz; 16 Bit; Stereo

TOC of the extracted CD Track | Start | Length | Start sector | End sector
--1 | 0:00.00 | 4:17.10 | 0 | 19284 2 | 4:17.10 | 2:55.40 | 19285 | 32449 3 | 7:12.50 | 3:51.18 | 32450 | 49792 4 | 11:03.68 | 4:48.62 | 49793 | 71454 5 | 15:52.55 | 2:06.18 | 71455 | 80922 6 | 17:58.73 | 5:02.15 | 80923 | 103587 7 | 23:01.13 | 10:10.70 | 103588 | 149407 8 | 33:12.08 | 10:13.72 | 149408 | 195454 9 | 43:26.05 | 3:40.05 | 195455 | 211959
10 | 47:06.10 | 3:39.49 | 211960 | 228433

Range status and errors

Selected range Filename C:\Users\Meijin\Desktop\ALLexxess\Terry Reid\2015 Original Album Series (5CD Box Set Rhino Records)\1968 Bang, Bang You're Terry Reid\Terry Reid - Bang, Bang You're Terry Reid.wav Peak level 99.2 %
Extraction speed 6.9 X
Range quality 99.9 %
Test CRC 7BD6D4CD
Copy CRC 7BD6D4CD
Copy OK

No errors occurred


AccurateRip summary

Track 1 accurately ripped (confidence 1) [86C2083A] (AR v1)
Track 2 accurately ripped (confidence 1) [F368D129] (AR v1)
Track 3 accurately ripped (confidence 1) [73B1F559] (AR v1)
Track 4 accurately ripped (confidence 1) [17D2F217] (AR v1)
Track 5 accurately ripped (confidence 1) [53946FBC] (AR v1)
Track 6 accurately ripped (confidence 1) [4A37DFEC] (AR v1)
Track 7 accurately ripped (confidence 1) [F090947B] (AR v1)
Track 8 accurately ripped (confidence 1) [7B8AC4B6] (AR v1)
Track 9 accurately ripped (confidence 1) [AD4CAAFA] (AR v1)
Track 10 accurately ripped (confidence 1) [5307F15E] (AR v1)

All tracks accurately ripped

End of status report

- CUETools DB Plugin V2.1.6

[CTDB TOCID: 4ieOPxTzB81TMLKY.hXkvKVquWI-] found
Submit result: 4ieOPxTzB81TMLKY.hXkvKVquWI- has been confirmed
Track | CTDB Status
1 | (3/3) Accurately ripped
2 | (3/3) Accurately ripped
3 | (3/3) Accurately ripped
4 | (3/3) Accurately ripped
5 | (3/3) Accurately ripped
6 | (3/3) Accurately ripped
7 | (3/3) Accurately ripped
8 | (3/3) Accurately ripped
9 | (3/3) Accurately ripped
10 | (3/3) Accurately ripped

==== Log checksum 1706CB59275298B33AA5C01639CCAD43AB31D6135D1569BDC44954ADF46FC03E ====

foobar2000 1.2.9 / Dynamic Range Meter 1.1.1
log date: 2015-07-11 15:32:18

Analyzed: Terry Reid / Bang, Bang You're Terry Reid

DR Peak RMS Duration Track

DR12 -0.07 dB -13.36 dB 4:17 01-Bang Bang My Baby Shot Me Down
DR9 -0.10 dB -10.98 dB 2:56 02-Tinker Taylor
DR13 -0.12 dB -18.57 dB 3:51 03-Erica
DR11 -0.07 dB -13.23 dB 4:49 04-Without Expression
DR11 -0.31 dB -13.35 dB 2:06 05-Sweater
DR11 -0.10 dB -14.30 dB 5:02 06-Something's Gotten Hold Of My Heart
DR11 -0.13 dB -14.62 dB 10:11 07-Season Of The Witch
DR11 -0.07 dB -13.89 dB 10:14 08-Writing On The Wall / Summertime Blues
DR11 -0.08 dB -12.76 dB 3:40 09-When You Get Home
DR10 -0.08 dB -12.45 dB 3:40 10-Loving Time

Number of tracks: 10
Official DR value: DR11

Samplerate: 44100 Hz
Channels: 2
Bits per sample: 16
Bitrate: 825 kbps
Codec: FLAC

[CUETools log; Date: 11.07.2015 2:03:32; Version: 2.1.4]
[CTDB TOCID: 4ieOPxTzB81TMLKY.hXkvKVquWI-] found.
Track | CTDB Status
1 | (4/4) Accurately ripped
2 | (4/4) Accurately ripped
3 | (4/4) Accurately ripped
4 | (4/4) Accurately ripped
5 | (4/4) Accurately ripped
6 | (4/4) Accurately ripped
7 | (4/4) Accurately ripped
8 | (4/4) Accurately ripped
9 | (4/4) Accurately ripped
10 | (4/4) Accurately ripped
[AccurateRip ID: 00116fdf-0090cd5b-930be50a] found.
Track [ CRC | V2 ] Status
01 [86c2083a|be7577d3] (0+3/3) Accurately ripped
02 [f368d129|db058afc] (0+3/3) Accurately ripped
03 [73b1f559|db3bc6cd] (0+3/3) Accurately ripped
04 [17d2f217|877a67cc] (0+3/3) Accurately ripped
05 [53946fbc|3ead32c7] (0+3/3) Accurately ripped
06 [4a37dfec|042e1f12] (0+3/3) Accurately ripped
07 [f090947b|2676d7a2] (0+3/3) Accurately ripped
08 [7b8ac4b6|ae2a545b] (0+3/3) Accurately ripped
09 [ad4caafa|eb67b983] (0+3/3) Accurately ripped
10 [5307f15e|c2c9cf3e] (0+3/3) Accurately ripped

Track Peak [ CRC32 ] [W/O NULL] [ LOG ]
-- 99,2 [7BD6D4CD] [785F7D72] CRC32
01 99,1 [6B7511BC] B1A1443
02 98,8 [9547F47F] [15A31B2D]
03 98,6 [1DE568CD] [4D14A531]
04 99,2 [A251383C] [2E7C7525]
05 96,5 [8AA4C04C] [1B529D26]
06 98,8 [DA5AFD67] [F74C3EBC]
07 98,4 [CE3828B5] [F9B439B3]
08 99,1 [48F52DB0] [423DA9DF]
09 99,1 [C3502528] [4806E103]
10 99,0 [F5CCA33F] [1DB46D0F]

* * * * * *

Original Album Series: Terry Reid (2015)

CD02: Terry Reid - Terry Reid (1969)
EAC | Flac(Image) + Cue + Log & MP3 CBR 320Kbps
Rock | Rhino / Warner, 0825646163960 | ~ 258 or 105 Mb

"Reid's initial pair of albums are very similar, and it's really a toss-up as to which one is better. If either rates a slight edge, it would be Terry Reid, as it finds his songwriting skills slightly more developed. The Donovan influence is again apparent on the cover of the Scotsman's "Superlungs My Supergirl," and "Stay with Me Baby" is another well-done blue-eyed soul showcase. As a songwriter, Reid still had a way to go, sounding better on the gentler, folkier numbers than the all-out power trio numbers. Such unfulfilled promise was understandable to a degree, as Reid was not yet 20 when this was released; unfortunately, he would never significantly expand on the promise of his first two LPs. The CD reissue on BGO adds four bonus cuts from the two rare non-LP singles he recorded in 1967 and 1968, prior to the issue of Bang, Bang You're Terry Reid.


by Richie Unterberger, AMG
"


Tracklist:

01 Superlungs My Supergirl
02 Silver White Light
03 July
04 Marking Time
05 Stay With Me Baby
06 Highway 61 Revisited / Friends
07 May Fly
08 Speak Now Or Forever Hold Your Peace
09 Rich Kid Blues

Exact Audio Copy V1.1 from 23. June 2015

EAC extraction logfile from 4. July 2015, 11:37

Terry Reid / Terry Reid

Used drive : PLEXTOR BD-R PX-B950SA Adapter: 1 ID: 1

Read mode : Secure
Utilize accurate stream : Yes
Defeat audio cache : Yes
Make use of C2 pointers : No

Read offset correction

: 6
Overread into Lead-In and Lead-Out : No
Fill up missing offset samples with silence : Yes
Delete leading and trailing silent blocks : No
Null samples used in CRC calculations : Yes
Used interface
: Native Win32 interface for Win NT & 2000

Used output format : Internal WAV Routines
Sample format : 44.100 Hz; 16 Bit; Stereo

TOC of the extracted CD Track | Start | Length | Start sector | End sector
--1 | 0:00.00 | 2:43.30 | 0 | 12254 2 | 2:43.30 | 2:54.47 | 12255 | 25351 3 | 5:38.02 | 3:33.38 | 25352 | 41364 4 | 9:11.40 | 3:47.47 | 41365 | 58436 5 | 12:59.12 | 4:12.10 | 58437 | 77346 6 | 17:11.22 | 8:00.13 | 77347 | 113359 7 | 25:11.35 | 3:42.40 | 113360 | 130049 8 | 28:54.00 | 4:26.05 | 130050 | 150004 9 | 33:20.05 | 4:12.53 | 150005 | 168957

Range status and errors

Selected range Filename C:\Users\Meijin\Desktop\ALLexxess\Terry Reid\2015 Original Album Series (5CD Box Set Rhino Records)\1969 Terry Reid\Terry Reid - Terry Reid.wav Peak level 99.1 %
Extraction speed 6.5 X
Range quality 100.0 %
Test CRC 4C2C8D16
Copy CRC 4C2C8D16
Copy OK

No errors occurred


AccurateRip summary

Track 1 accurately ripped (confidence 1) [A958059A] (AR v1)
Track 2 accurately ripped (confidence 1) [4C4FC033] (AR v1)
Track 3 accurately ripped (confidence 1) [CC6700D8] (AR v1)
Track 4 accurately ripped (confidence 1) [6AFA37A0] (AR v1)
Track 5 accurately ripped (confidence 1) 9EC0E60 (AR v1)
Track 6 accurately ripped (confidence 1) [06B4C389] (AR v1)
Track 7 accurately ripped (confidence 1) 0CBF612 (AR v1)
Track 8 accurately ripped (confidence 1) [2B290BAA] (AR v1)
Track 9 accurately ripped (confidence 1) [3F7B0FAD] (AR v1)

All tracks accurately ripped

End of status report

- CUETools DB Plugin V2.1.6

[CTDB TOCID: ZATXFEhul6MMK98_XPkEWMFucdE-] found
Submit result: ZATXFEhul6MMK98_XPkEWMFucdE- has been confirmed
Track | CTDB Status
1 | (2/2) Accurately ripped
2 | (2/2) Accurately ripped
3 | (2/2) Accurately ripped
4 | (2/2) Accurately ripped
5 | (2/2) Accurately ripped
6 | (2/2) Accurately ripped
7 | (2/2) Accurately ripped
8 | (2/2) Accurately ripped
9 | (2/2) Accurately ripped

==== Log checksum 9CD4EB4A28E49934BC5412D7A64A4D1A18DF651F4BF2AE73B80447651CB85ACB ====

foobar2000 1.2.9 / Dynamic Range Meter 1.1.1
log date: 2015-07-11 14:51:13

Analyzed: Terry Reid / Terry Reid

DR Peak RMS Duration Track

DR10 -0.57 dB -11.68 dB 2:43 01-Superlungs My Supergirl
DR10 -1.39 dB -13.11 dB 2:55 02-Silver White Light
DR12 -1.70 dB -20.59 dB 3:34 03-July
DR10 -0.57 dB -11.96 dB 3:48 04-Marking Time
DR10 -0.57 dB -12.59 dB 4:12 05-Stay With Me Baby
DR10 -0.07 dB -11.92 dB 8:00 06-Highway 61 Revisited / Friends
DR10 -1.60 dB -17.33 dB 3:43 07-May Fly
DR10 -0.58 dB -11.66 dB 4:26 08-Speak Now Or Forever Hold Your Peace
DR10 -0.58 dB -13.51 dB 4:13 09-Rich Kid Blues

Number of tracks: 9
Official DR value: DR10

Samplerate: 44100 Hz
Channels: 2
Bits per sample: 16
Bitrate: 838 kbps
Codec: FLAC

[CUETools log; Date: 11.07.2015 2:05:54; Version: 2.1.4]
[CTDB TOCID: ZATXFEhul6MMK98_XPkEWMFucdE-] found.
Track | CTDB Status
1 | (3/3) Accurately ripped
2 | (3/3) Accurately ripped
3 | (3/3) Accurately ripped
4 | (3/3) Accurately ripped
5 | (3/3) Accurately ripped
6 | (3/3) Accurately ripped
7 | (3/3) Accurately ripped
8 | (3/3) Accurately ripped
9 | (3/3) Accurately ripped
[AccurateRip ID: 000bdba9-0059f69f-5808cc09] found.
Track [ CRC | V2 ] Status
01 [a958059a|4fc78715] (0+3/3) Accurately ripped
02 [4c4fc033|37f3c597] (0+3/3) Accurately ripped
03 [cc6700d8|5b2b70aa] (0+3/3) Accurately ripped
04 [6afa37a0|05eabe2d] (0+3/3) Accurately ripped
05 9ec0e60|b799ca3e (0+3/3) Accurately ripped
06 [06b4c389|2fb4bed2] (0+3/3) Accurately ripped
07 0cbf612|5cee62e8 (0+3/3) Accurately ripped
08 [2b290baa|84e651e8] (0+3/3) Accurately ripped
09 [3f7b0fad|7e248f57] (0+3/3) Accurately ripped

Track Peak [ CRC32 ] [W/O NULL] [ LOG ]
-- 99,1 [4C2C8D16] [84A2C448] CRC32
01 93,6 [F6B15E02] [07E96703]
02 85,1 [435C23B3] [C88C25C6]
03 82,2 [0C54C66A] [1F260FEA]
04 93,6 [2E2CBFC7] [661B36FF]
05 93,6 [DA0DA119] [D617F509]
06 99,1 [9858BE8F] [A85A5B2C]
07 83,1 [C2DE1EB2] [9DD43ABA]
08 93,5 [4DFFD960] E1A79F8
09 93,5 [E18193AA] [1704ACF8]

* * * * * *

Original Album Series: Terry Reid (2015)

CD03: Terry Reid - River (1973)
EAC | Flac(Image) + Cue + Log & MP3 CBR 320Kbps
Rock | Rhino / Warner, 0825646163960 | ~ 233 or 106 Mb

"River was a looser and rootsier affair than Terry Reid's first records, taken from a sprawl of sessions in London and California that generated enough material for several albums. The very looseness that gives the effort some charm is the same quality, however, that keeps it from being a major work. The songs mostly sound unfinished, as if they're friendly jams in which Reid and the musicians (including, most notably, David Lindley on half the album and percussionist Willie Bobo on the title track) are working out some song ideas or twisting around some riffs. It often brings to mind those parts of songs where the likes of Van Morrison, Tim Buckley, or Robert Plant sing-scat improvised-sounding vocal passages. The difference is that, for the most part, those singers used such sections to embellish solid songs. On River, the quasi-stream-of-consciousness vocal ramblings are the songs. The first four of the seven songs are very much in a funky, laid-back blues-rock groove, prominently featuring Lindley on steel, slide, and electric guitars. Reid, and the album itself, really begin to find more of an individual voice on "River," where beguiling Latin-Brazilian elements are introduced in the guitar, melody, and rhythm. The final two cuts, "Dream" and "Milestones," back Reid's vocals only with acoustic guitar, and have a romantic melancholy that likewise makes them highlights of this highly personal but uneven record.


by Richie Unterberger, AMG
"


Tracklist:

01 Dean
02 Avenue
03 Things To Try
04 Live Life
05 River
06 Dream
07 Milestones

Exact Audio Copy V1.1 from 23. June 2015

EAC extraction logfile from 4. July 2015, 11:09

Terry Reid / River

Used drive : PLEXTOR BD-R PX-B950SA Adapter: 1 ID: 1

Read mode : Secure
Utilize accurate stream : Yes
Defeat audio cache : Yes
Make use of C2 pointers : No

Read offset correction

: 6
Overread into Lead-In and Lead-Out : No
Fill up missing offset samples with silence : Yes
Delete leading and trailing silent blocks : No
Null samples used in CRC calculations : Yes
Used interface
: Native Win32 interface for Win NT & 2000

Used output format : Internal WAV Routines
Sample format : 44.100 Hz; 16 Bit; Stereo

TOC of the extracted CD Track | Start | Length | Start sector | End sector
--1 | 0:00.00 | 4:45.38 | 0 | 21412 2 | 4:45.38 | 5:08.12 | 21413 | 44524 3 | 9:53.50 | 4:25.25 | 44525 | 64424 4 | 14:19.00 | 5:11.20 | 64425 | 87769 5 | 19:30.20 | 5:45.33 | 87770 | 113677 6 | 25:15.53 | 5:20.64 | 113678 | 137741 7 | 30:36.42 | 5:52.24 | 137742 | 164165

Range status and errors

Selected range Filename C:\Users\Meijin\Desktop\ALLexxess\Terry Reid\2015 Original Album Series (5CD Box Set Rhino Records)\1973 River\Terry Reid - River.wav Peak level 96.6 %
Extraction speed 6.3 X
Range quality 99.9 %
Test CRC 8F202F28
Copy CRC 8F202F28
Copy OK

No errors occurred


AccurateRip summary

Track 1 not present in database
Track 2 not present in database
Track 3 not present in database
Track 4 not present in database
Track 5 not present in database
Track 6 not present in database
Track 7 not present in database

None of the tracks are present in the AccurateRip database

End of status report

- CUETools DB Plugin V2.1.6

[CTDB TOCID: wjSeatlo5RBb.fsQPBa8hjCaRxQ-] found
Submit result: wjSeatlo5RBb.fsQPBa8hjCaRxQ- has been confirmed
Track | CTDB Status
1 | (4/4) Accurately ripped
2 | (4/4) Accurately ripped
3 | (4/4) Accurately ripped
4 | (4/4) Accurately ripped
5 | (4/4) Accurately ripped
6 | (4/4) Accurately ripped
7 | (4/4) Accurately ripped

==== Log checksum 3CB4E85ADECC1AF4067FADD6C711F634F20A06B26232CDEB4D571447C5274BA6 ====

foobar2000 1.2.9 / Dynamic Range Meter 1.1.1
log date: 2015-07-11 15:32:56

Analyzed: Terry Reid / River

DR Peak RMS Duration Track

DR13 -0.30 dB -15.26 dB 4:46 01-Dean
DR12 -0.30 dB -13.64 dB 5:08 02-Avenue
DR12 -0.30 dB -14.30 dB 4:25 03-Things To Try
DR13 -0.30 dB -14.82 dB 5:11 04-Live Life
DR12 -0.30 dB -16.38 dB 5:45 05-River
DR15 -1.21 dB -20.32 dB 5:21 06-Dream
DR14 -1.25 dB -23.63 dB 5:52 07-Milestones

Number of tracks: 7
Official DR value: DR13

Samplerate: 44100 Hz
Channels: 2
Bits per sample: 16
Bitrate: 790 kbps
Codec: FLAC

[CUETools log; Date: 11.07.2015 2:07:40; Version: 2.1.4]
[CTDB TOCID: wjSeatlo5RBb.fsQPBa8hjCaRxQ-] found.
Track | CTDB Status
1 | (5/5) Accurately ripped
2 | (5/5) Accurately ripped
3 | (5/5) Accurately ripped
4 | (5/5) Accurately ripped
5 | (5/5) Accurately ripped
6 | (5/5) Accurately ripped
7 | (5/5) Accurately ripped
[AccurateRip ID: 0009ab77-003a7ade-62088c07] found.
Track [ CRC | V2 ] Status
01 [ae22c3d0|8804a49f] (0+2/2) Accurately ripped
02 [70c2c9c8|888bbee9] (0+2/2) Accurately ripped
03 [9087107f|40cbf7f6] (0+2/2) Accurately ripped
04 [860bfa7c|b30fe678] (0+2/2) Accurately ripped
05 [cf092d0b|1f8c4095] (0+2/2) Accurately ripped
06 [d1e4a483|8a5b8b94] (0+2/2) Accurately ripped
07 [ce3fd240|2464c9ea] (0+2/2) Accurately ripped

Track Peak [ CRC32 ] [W/O NULL] [ LOG ]
-- 96,6 [8F202F28] [4EAB090F] CRC32
01 96,6 [FD97945D] [10252DBF]
02 96,6 [5A8D945A] [1D870EB3]
03 96,6 [08B156D0] [5F3EDB7E]
04 96,6 [5AB90CD9] [4AF5427D]
05 96,6 [5E45837B] [E002730B]
06 86,9 [3A490D26] [866A7CBB]
07 86,6 [1548B370] [38C5B7CD]

* * * * * *

Original Album Series: Terry Reid (2015)

CD04: Terry Reid - Rogue Waves (1978)
EAC | Flac(Image) + Cue + Log & MP3 CBR 320Kbps
Rock | Rhino / Warner, 0825646163960 | ~ 294 or 120 Mb

"When this album came out, in the middle of the punk and disco booms, it seemed like a breath of fresh air, a stomping mix of heavy metal and soul, filled with engaging originals by Reid and spiced by heavy-handed but bracing versions of harmony-based numbers like "Baby I Love You," "Then I Kissed Her," "Walk Away Renee," and "All I Have To Do Is Dream." Today, they don't hold up so well, and the album seems a bit over-the-top, overdone, and excessive. Doug Rodrigues and Reid share guitar chores, and the best parts of their playing are the softest moments. The backing vocals by Denise Williams, Dyanne Chandler, and Maxine Willard are often ravishing, and Reid's singing is as powerful as ever -- it all just seems a bit arch and artificial, perhaps because of the way-too-close bass and drum sound, and the too-heavy guitar; that works for blues, as Led Zeppelin proved most of the time, but it makes for some distinctly unsubtle R&B.


by Bruce Eder, AMG
"


Tracklist:

01 Ain't No Shadow
02 Baby I Love You
03 Stop And Think It Over
04 Rogue Wave
05 Walk Away Rene
06 Believe In The Magic
07 Then I Kissed Her
08 Bowangi
09 All I Have To Do Is Dream

Exact Audio Copy V1.1 from 23. June 2015

EAC extraction logfile from 4. July 2015, 10:40

Terry Reid / Rogue Waves

Used drive : PLEXTOR BD-R PX-B950SA Adapter: 1 ID: 1

Read mode : Secure
Utilize accurate stream : Yes
Defeat audio cache : Yes
Make use of C2 pointers : No

Read offset correction

: 6
Overread into Lead-In and Lead-Out : No
Fill up missing offset samples with silence : Yes
Delete leading and trailing silent blocks : No
Null samples used in CRC calculations : Yes
Used interface
: Native Win32 interface for Win NT & 2000

Used output format : Internal WAV Routines
Sample format : 44.100 Hz; 16 Bit; Stereo

TOC of the extracted CD Track | Start | Length | Start sector | End sector
--1 | 0:00.00 | 3:42.37 | 0 | 16686 2 | 3:42.37 | 3:52.63 | 16687 | 34149 3 | 7:35.25 | 3:40.50 | 34150 | 50699 4 | 11:16.00 | 5:42.70 | 50700 | 76419 5 | 16:58.70 | 4:18.22 | 76420 | 95791 6 | 21:17.17 | 6:32.38 | 95792 | 125229 7 | 27:49.55 | 4:43.62 | 125230 | 146516 8 | 32:33.42 | 4:15.25 | 146517 | 165666 9 | 36:48.67 | 5:23.58 | 165667 | 189949

Range status and errors

Selected range Filename C:\Users\Meijin\Desktop\ALLexxess\Terry Reid\2015 Original Album Series (5CD Box Set Rhino Records)\1978 Rogue Waves\Terry Reid - Rogue Waves.wav Peak level 89.4 %
Extraction speed 6.6 X
Range quality 100.0 %
Test CRC C7AE8582
Copy CRC C7AE8582
Copy OK

No errors occurred


AccurateRip summary

Track 1 not present in database
Track 2 not present in database
Track 3 not present in database
Track 4 not present in database
Track 5 not present in database
Track 6 not present in database
Track 7 not present in database
Track 8 not present in database
Track 9 not present in database

None of the tracks are present in the AccurateRip database

End of status report

- CUETools DB Plugin V2.1.6

[CTDB TOCID: tjixbnj5yFRDIeCEaC7ObFfUpIg-] found
Submit result: tjixbnj5yFRDIeCEaC7ObFfUpIg- has been confirmed
Track | CTDB Status
1 | (2/2) Accurately ripped
2 | (2/2) Accurately ripped
3 | (2/2) Accurately ripped
4 | (2/2) Accurately ripped
5 | (2/2) Accurately ripped
6 | (2/2) Accurately ripped
7 | (2/2) Accurately ripped
8 | (2/2) Accurately ripped
9 | (2/2) Accurately ripped

==== Log checksum 1DCBFF244B91CB133DFDCCD495423E6BC3DFC81B8215193AD2D167CE26FCE174 ====

foobar2000 1.2.9 / Dynamic Range Meter 1.1.1
log date: 2015-07-11 15:33:13

Analyzed: Terry Reid / Rogue Waves

DR Peak RMS Duration Track

DR10 -1.52 dB -13.10 dB 3:42 01-Ain't No Shadow
DR9 -1.27 dB -11.90 dB 3:53 02-Baby I Love You
DR10 -1.69 dB -13.14 dB 3:41 03-Stop And Think It Over
DR11 -1.66 dB -14.59 dB 5:43 04-Rogue Wave
DR10 -1.37 dB -13.63 dB 4:18 05-Walk Away Renee
DR10 -0.97 dB -13.24 dB 6:33 06-Believe In Magic
DR9 -1.02 dB -11.09 dB 4:44 07-Then I Kissed Her
DR9 -1.10 dB -12.28 dB 4:15 08-Bowangi
DR11 -1.69 dB -17.27 dB 5:24 09-All I Have To Do Is Dream

Number of tracks: 9
Official DR value: DR10

Samplerate: 44100 Hz
Channels: 2
Bits per sample: 16
Bitrate: 878 kbps
Codec: FLAC

[CUETools log; Date: 11.07.2015 16:13:06; Version: 2.1.4]
[CTDB TOCID: tjixbnj5yFRDIeCEaC7ObFfUpIg-] found.
Track | CTDB Status
1 | (3/3) Accurately ripped
2 | (3/3) Accurately ripped
3 | (3/3) Accurately ripped
4 | (3/3) Accurately ripped
5 | (3/3) Accurately ripped
6 | (3/3) Accurately ripped
7 | (3/3) Accurately ripped
8 | (3/3) Accurately ripped
9 | (3/3) Accurately ripped
[AccurateRip ID: 000dbff9-0066c386-6d09e409] found.
Track [ CRC | V2 ] Status
01 [8bb8a77b|ec401b1b] (0+3/3) Accurately ripped
02 [c9de93a4|bfd32de1] (0+3/3) Accurately ripped
03 [0c23639f|b7a60e65] (0+3/3) Accurately ripped
04 [6cb6acdb|492202b4] (0+3/3) Accurately ripped
05 [61b4b31e|db61e454] (0+3/3) Accurately ripped
06 [78ffd3e3|ba13cb84] (0+3/3) Accurately ripped
07 [cf8e7ca9|1a99658e] (0+3/3) Accurately ripped
08 [e5d3fb1c|16425617] (0+3/3) Accurately ripped
09 [18bdfcaf|f9221a1b] (0+3/3) Accurately ripped

Track Peak [ CRC32 ] [W/O NULL] [ LOG ]
-- 89,4 [C7AE8582] [F2D829D4] CRC32
01 83,9 [2F15DF8B] C044777
02 86,3 [93609C39] [021F1C57]
03 82,2 [9A7061B4] C846521
04 82,5 590754C [ED1C6B70]
05 85,4 [72469E45] [CC41946B]
06 89,4 65DC6EB [D5832BA8]
07 88,8 [90B7EF0A] [CFE93182]
08 88,1 [3A237653] [75381597]
09 82,3 [5B8ECC15] [20B6315A]

* * * * * *

Original Album Series: Terry Reid (2015)

CD05: Terry Reid - The Driver (1991)
EAC | Flac(Image) + Cue + Log & MP3 CBR 320Kbps
Rock | Rhino / Warner, 0825646163960 | ~ 309 or 123 Mb
Terry Reid - The Driver at Discogs

Tracklist:

01 Fifth Of July
02 There's Nothing Wrong
03 Right To The End
04 The Whole Of The Moon
05 Hand Of Dimes
06 The Driver (Pt I)
07 If You Let Her
08 Turn Around
09 Gimme Some Lovin'
10 Laugh At Life
11 The Driver (Pt II)

Exact Audio Copy V1.1 from 23. June 2015

EAC extraction logfile from 4. July 2015, 10:12

Terry Reid / The Driver

Used drive : PLEXTOR BD-R PX-B950SA Adapter: 1 ID: 1

Read mode : Secure
Utilize accurate stream : Yes
Defeat audio cache : Yes
Make use of C2 pointers : No

Read offset correction

: 6
Overread into Lead-In and Lead-Out : No
Fill up missing offset samples with silence : Yes
Delete leading and trailing silent blocks : No
Null samples used in CRC calculations : Yes
Used interface
: Native Win32 interface for Win NT & 2000

Used output format : Internal WAV Routines
Sample format : 44.100 Hz; 16 Bit; Stereo

TOC of the extracted CD Track | Start | Length | Start sector | End sector
--1 | 0:00.00 | 5:11.57 | 0 | 23381 2 | 5:11.57 | 5:05.48 | 23382 | 46304 3 | 10:17.30 | 4:56.50 | 46305 | 68554 4 | 15:14.05 | 4:13.20 | 68555 | 87549 5 | 19:27.25 | 3:04.45 | 87550 | 101394 6 | 22:31.70 | 0:44.07 | 101395 | 104701 7 | 23:16.02 | 4:29.45 | 104702 | 124921 8 | 27:45.47 | 3:48.30 | 124922 | 142051 9 | 31:34.02 | 4:20.58 | 142052 | 161609
10 | 35:54.60 | 4:49.05 | 161610 | 183289
11 | 40:43.65 | 4:35.59 | 183290 | 203973

Range status and errors

Selected range Filename C:\Users\Meijin\Desktop\ALLexxess\Terry Reid\2015 Original Album Series (5CD Box Set Rhino Records)\1991 The Driver\Terry Reid - The Driver.wav Peak level 97.3 %
Extraction speed 6.8 X
Range quality 100.0 %
Test CRC 986DD036
Copy CRC 986DD036
Copy OK

No errors occurred


AccurateRip summary

Track 1 accurately ripped (confidence 1) [798C42CB] (AR v1)
Track 2 accurately ripped (confidence 1) [DFA4B393] (AR v1)
Track 3 accurately ripped (confidence 1) [867C2EB9] (AR v1)
Track 4 accurately ripped (confidence 1) [0D738172] (AR v1)
Track 5 accurately ripped (confidence 1) [F22A48E7] (AR v1)
Track 6 accurately ripped (confidence 1) [E1149902] (AR v1)
Track 7 accurately ripped (confidence 1) [00B8CEFB] (AR v1)
Track 8 accurately ripped (confidence 1) [79899769] (AR v1)
Track 9 accurately ripped (confidence 1) [8AFA5AE1] (AR v1)
Track 10 accurately ripped (confidence 1) [F72AE288] (AR v1)
Track 11 accurately ripped (confidence 1) [D5B831F2] (AR v1)

All tracks accurately ripped

End of status report

- CUETools DB Plugin V2.1.6

[CTDB TOCID: OjZGN2V5DxcGHrwB5imNk6yCVOg-] found
Submit result: OjZGN2V5DxcGHrwB5imNk6yCVOg- has been confirmed
Track | CTDB Status
1 | (3/3) Accurately ripped
2 | (3/3) Accurately ripped
3 | (3/3) Accurately ripped
4 | (3/3) Accurately ripped
5 | (3/3) Accurately ripped
6 | (3/3) Accurately ripped
7 | (3/3) Accurately ripped
8 | (3/3) Accurately ripped
9 | (3/3) Accurately ripped
10 | (3/3) Accurately ripped
11 | (3/3) Accurately ripped

==== Log checksum EA6E6804242B830E5185E8EB35D8ADC870FC6A1801A4D784BBC3D40E43411655 ====

foobar2000 1.2.9 / Dynamic Range Meter 1.1.1
log date: 2015-07-11 15:33:28

Analyzed: Terry Reid / The Driver

DR Peak RMS Duration Track

DR12 -0.44 dB -15.42 dB 5:12 01-Fifth Of July
DR12 -0.38 dB -16.00 dB 5:06 02-There's Nothing Wrong
DR12 -0.63 dB -16.82 dB 4:57 03-Right To The End
DR12 -1.00 dB -15.65 dB 4:13 04-The Whole Of The Moon
DR13 -0.69 dB -16.66 dB 3:05 05-Hand Of Dimes
DR11 -5.51 dB -21.34 dB 0:44 06-The Driver (Pt I)
DR12 -0.53 dB -14.97 dB 4:30 07-If You Let Her
DR12 -0.91 dB -15.34 dB 3:48 08-Turn Around
DR13 -0.23 dB -15.53 dB 4:21 09-Gimme Some Lovin'
DR12 -2.82 dB -16.80 dB 4:49 10-Laugh At Life
DR12 -1.93 dB -17.43 dB 4:36 11-The Driver (Pt II)

Number of tracks: 11
Official DR value: DR12

Samplerate: 44100 Hz
Channels: 2
Bits per sample: 16
Bitrate: 873 kbps
Codec: FLAC

[CUETools log; Date: 11.07.2015 2:11:41; Version: 2.1.4]
[CTDB TOCID: OjZGN2V5DxcGHrwB5imNk6yCVOg-] found.
Track | CTDB Status
1 | (4/4) Accurately ripped
2 | (4/4) Accurately ripped
3 | (4/4) Accurately ripped
4 | (4/4) Accurately ripped
5 | (4/4) Accurately ripped
6 | (4/4) Accurately ripped
7 | (4/4) Accurately ripped
8 | (4/4) Accurately ripped
9 | (4/4) Accurately ripped
10 | (4/4) Accurately ripped
11 | (4/4) Accurately ripped
[AccurateRip ID: 001309f9-00a1b194-a40a9f0b] found.
Track [ CRC | V2 ] Status
01 [798c42cb|5d7dbb3c] (0+3/3) Accurately ripped
02 [dfa4b393|080f4598] (0+3/3) Accurately ripped
03 [867c2eb9|a8e5ae8d] (0+3/3) Accurately ripped
04 [0d738172|b25e0ee7] (0+3/3) Accurately ripped
05 [f22a48e7|e51044f8] (0+3/3) Accurately ripped
06 [e1149902|c2c152bd] (0+3/3) Accurately ripped
07 [00b8cefb|f5546aa2] (0+3/3) Accurately ripped
08 [79899769|f86328b4] (0+3/3) Accurately ripped
09 [8afa5ae1|5fae4ff8] (0+3/3) Accurately ripped
10 [f72ae288|318698d0] (0+3/3) Accurately ripped
11 [d5b831f2|ee2495b2] (0+3/3) Accurately ripped

Track Peak [ CRC32 ] [W/O NULL] [ LOG ]
-- 97,3 [986DD036] [ECB0D9E9] CRC32
01 95,0 [5D0445A6] [84974C38]
02 95,7 [77585C85] [D49EC19F]
03 93,0 [46BFBBEC] [7D1A2942]
04 89,1 [4A982023] [66AA67C4]
05 92,3 [6074483F] [3C9171C4]
06 53,0 [3473E24A] [1B22DB98]
07 94,0 [F7C77B77] [C9E08C4C]
08 90,0 [40F1ABC6] [50C3A2EE]
09 97,3 [F580B5D8] [10E367DC]
10 72,3 [A4BA1EBD] [C5A7951E]
11 80,0 [25F15DB9] [59F5580C]

Original Album Series: Terry Reid (2015)

Download Links:
(Premium Recommended)


All above links are interchangable. No password

Direct Download

Tags: Original, Series

Original Album Series: Terry Reid (2015) Download via Hotfile Rapidshare Fileserve Megaupload & FileSonic, Original Album Series: Terry Reid (2015) free torrent downloads included crack, serial, keygen.


Attention!Information

Members of Guest cannot leave comments.