Creedence Clearwater Revival - Chronicle: Volume 1 & 2 (1990) [2CD Set, Japan, VICP-40025/40026]

Download Now

Creedence Clearwater Revival - Chronicle: Volume 1 & 2 (1990) [2CD Set, Japan, VICP-40025/40026]

Creedence Clearwater Revival - Chronicle: Volume 1 & 2 (1990)
2CD | EAC Rip | FLAC (Img) + Cue + Log ~ 863 Mb | MP3 CBR320 ~ 351 Mb
Covers Included (JPG, 300 dpi) | RAR 5% Recovery
Rock | Victor Musical Industries #VICP-40025/40026

"Chronicle, Vol. 1 contains every one of Creedence Clearwater Revival's original 19 hit singles -- including "Proud Mary," "Bad Moon Rising," "Green River," "Down on the Corner," "Travelin' Band," "Up Around the Band," and "Have You Ever Seen the Rain" -- plus "I Heard It Through the Grapevine," which became a hit at the same time this double-record compilation was released. Chronicle, Vol. 2 effectively compiles all of the highlights from Creedence Clearwater Revival's career that weren't on the first volume. All of the singles were included on Chronicle, Vol. 1, so Chronicle, Vol. 2 is comprised solely of album tracks. That doesn't mean these are lesser items. On the contrary, the majority of these songs -- "Born on the Bayou," "Tombstone Shadow," "Wrote a Song for Everyone," "It Came Out of the Sky," and "Midnight Special" -- rank among their best performances..."

Chronicle, Vol. 2 effectively compiles all of the highlights from Creedence Clearwater Revival's career that weren't on the first volume. All of the singles were included on Chronicle, Vol. 1, so Chronicle, Vol. 2 is comprised solely of album tracks. That doesn't mean these are lesser items. On the contrary, the majority of these songs -- "Born on the Bayou," "Tombstone Shadow," "Wrote a Song for Everyone," "It Came Out of the Sky," and "Midnight Special" -- rank among their best performances. Of course, a couple of great tracks remain on CCR's individual albums, notably "Bootleg," but Chronicle, Vol. 2 is an ideal choice for listeners who want a little more than the hits, but are unwilling to delve into the albums proper.
~ Stephen Thomas Erlewine, All Music Guide
Wiki | Discogs | All Music
***************

Creedence Clearwater Revival - Chronicle: Volume 1 & 2 (1990) [2CD Set, Japan, VICP-40025/40026]

Track List CD1 - Chronicle:

01. Suzie Q [04:36]
02. I Put A Spell On You [04:32]
03. Proud Mary [03:09]
04. Bad Moon Rising [02:21]
05. Lodi [03:12]
06. Green River [02:35]
07. Commotion [02:43]
08. Down On The Corner [02:46]
09. Fortunate Son [02:20]
10. Travelin' Band [02:10]
11. Who'll Stop The Rain [02:30]
12. Up Around The Bend [02:43]
13. Run Through The Jungle [03:06]
14. Lookin' Out My Backdoor [02:33]
15. Long As I Can See The Light [03:35]
16. I Heard It Through The Grapevine [11:07]
17. Have you ever seen the rain [02:40]
18. Hey tonight [02:43]
19. Sweet hitch-hiker [02:56]
20. Someday never comes [04:02]

Exact Audio Copy V1.0 beta 4 from 7. December 2014

Отчёт EAC об извлечении, выполненном 7. июля 2015, 21:07

Creedence Clearwater Revival / Chronicle - Vol. 1

Дисковод: ASUS DRW-24F1ST a Adapter: 1 ID: 0

Режим чтения : Достоверность
Использование точного потока : Да
Отключение кэша аудио : Да
Использование указателей C2 : Нет

Коррекция смещения при чтении : 6
Способность читать области Lead-in и Lead-out : Нет
Заполнение пропущенных сэмплов тишиной : Да
Удаление блоков с тишиной в начале и конце : Нет
При вычислениях CRC использовались нулевые сэмплы : Да
Интерфейс : Встроенный Win32-интерфейс для Win NT/2000

Выходной формат : Пользовательский кодировщик
Выбранный битрейт : 128 kBit/s
Качество : Высокий
Добавление ID3-тега : Нет
Утилита сжатия : C:\Program Files\Exact Audio Copy\Flac\flac.exe
Дополнительные параметры : -V -8 -T "Date=%year%" -T "Genre=%genre%" %source%

TOC извлечённого CD Трек | Старт | Длительность | Начальный сектор | Конечный сектор

1 | 0:00.37 | 4:35.70 | 37 | 20731
2 | 4:36.32 | 4:32.00 | 20732 | 41131
3 | 9:08.32 | 3:08.70 | 41132 | 55301
4 | 12:17.27 | 2:20.05 | 55302 | 65806
5 | 14:37.32 | 3:11.30 | 65807 | 80161
6 | 17:48.62 | 2:34.10 | 80162 | 91721
7 | 20:22.72 | 2:42.60 | 91722 | 103931
8 | 23:05.57 | 2:45.10 | 103932 | 116316
9 | 25:50.67 | 2:19.65 | 116317 | 126806
10 | 28:10.57 | 2:09.20 | 126807 | 136501
11 | 30:20.02 | 2:29.25 | 136502 | 147701
12 | 32:49.27 | 2:42.27 | 147702 | 159878
13 | 35:31.54 | 3:05.68 | 159879 | 173821
14 | 38:37.47 | 2:32.65 | 173822 | 185286
15 | 41:10.37 | 3:34.25 | 185287 | 201361
16 | 44:44.62 | 11:06.35 | 201362 | 251346
17 | 55:51.22 | 2:39.67 | 251347 | 263338
18 | 58:31.14 | 2:42.55 | 263339 | 275543
19 | 61:13.69 | 2:55.60 | 275544 | 288728
20 | 64:09.54 | 4:01.40 | 288729 | 306843

Характеристики диапазона извлечения и сообщения об ошибках

Выбранный диапазон Имя файла C:\Users\Erik\Desktop\Creedence Clearwater Revival - Chronicle - Vol. 1.wav Пиковый уровень 93.5 %
Скорость извлечения 2.3 X
Качество диапазона 99.9 %
CRC теста 4A6A299A
CRC копии 4A6A299A
Копирование... OK

Ошибок не произошло


AccurateRip: сводка

Трек 1 : извлечено точно (доверие 4) 7ED3141 (AR v2)
Трек 2 : извлечено точно (доверие 4) [E4BC7CE2] (AR v2)
Трек 3 : извлечено точно (доверие 4) [3650CCC6] (AR v2)
Трек 4 : извлечено точно (доверие 5) 14EC0CC (AR v2)
Трек 5 : извлечено точно (доверие 4) [138158D7] (AR v2)
Трек 6 : извлечено точно (доверие 4) [9F7CFDDA] (AR v2)
Трек 7 : извлечено точно (доверие 4) C3CD744 (AR v2)
Трек 8 : извлечено точно (доверие 4) [79A83B7E] (AR v2)
Трек 9 : извлечено точно (доверие 5) [4ABA8B76] (AR v2)
Трек 10 : извлечено точно (доверие 5) [E162D7AC] (AR v2)
Трек 11 : извлечено точно (доверие 5) [9EA66E20] (AR v2)
Трек 12 : извлечено точно (доверие 4) [109A1D5A] (AR v2)
Трек 13 : извлечено точно (доверие 5) [4A5A94B6] (AR v2)
Трек 14 : извлечено точно (доверие 5) [FF6AA43E] (AR v2)
Трек 15 : извлечено точно (доверие 5) [DAFAD185] (AR v2)
Трек 16 : извлечено точно (доверие 4) [DBFDC6CD] (AR v2)
Трек 17 : извлечено точно (доверие 4) [EB820949] (AR v2)
Трек 18 : извлечено точно (доверие 5) [34CECFC1] (AR v2)
Трек 19 : извлечено точно (доверие 5) [A3CA814E] (AR v2)
Трек 20 : извлечено точно (доверие 4) [031B1DA8] (AR v2)

Все треки извлечены точно

Конец отчёта

- CUETools DB Plugin V2.1.4

[CTDB TOCID: 5R0hZhB5ljtxoKRhy0Y3drmpTgU-] found
Submit result: 5R0hZhB5ljtxoKRhy0Y3drmpTgU- has been confirmed
Track | CTDB Status
1 | (1/1) Accurately ripped
2 | (1/1) Accurately ripped
3 | (1/1) Accurately ripped
4 | (1/1) Accurately ripped
5 | (1/1) Accurately ripped
6 | (1/1) Accurately ripped
7 | (1/1) Accurately ripped
8 | (1/1) Accurately ripped
9 | (1/1) Accurately ripped
10 | (1/1) Accurately ripped
11 | (1/1) Accurately ripped
12 | (1/1) Accurately ripped
13 | (1/1) Accurately ripped
14 | (1/1) Accurately ripped
15 | (1/1) Accurately ripped
16 | (1/1) Accurately ripped
17 | (1/1) Accurately ripped
18 | (1/1) Accurately ripped
19 | (1/1) Accurately ripped
20 | (1/1) Accurately ripped

==== Контрольная сумма отчёта F087189DF65B59533CB9E0279599EE561CAE9636B4A6A59787BB2B77A5DDD1BD ====

foobar2000 1.2.6 / Dynamic Range Meter 1.1.1
log date: 2015-07-12 18:44:23

Analyzed: Creedence Clearwater Revival / Chronicle - Vol. 1

DR Peak RMS Duration Track

DR15 -3.69 dB -21.72 dB 4:36 01-Suzie Q
DR13 -3.13 dB -19.16 dB 4:32 02-I Put A Spell On You
DR14 -2.35 dB -18.22 dB 3:09 03-Proud Mary
DR14 -2.59 dB -19.10 dB 2:20 04-Bad Moon Rising
DR14 -3.13 dB -20.27 dB 3:11 05-Lodi
DR14 -5.09 dB -20.80 dB 2:34 06-Green River
DR14 -0.58 dB -19.41 dB 2:43 07-Commotion
DR14 -3.38 dB -20.65 dB 2:45 08-Down On The Corner
DR13 -4.17 dB -19.31 dB 2:20 09-Fortunate Son
DR14 -2.03 dB -18.43 dB 2:09 10-Travelin' Band
DR14 -3.96 dB -21.20 dB 2:29 11-Who'll Stop The Rain
DR13 -4.80 dB -19.34 dB 2:42 12-Up Around The Bend
DR13 -5.53 dB -21.19 dB 3:06 13-Run Through The Jungle
DR14 -4.35 dB -20.93 dB 2:33 14-Lookin' Out My Backdoor
DR14 -4.05 dB -21.39 dB 3:34 15-Long As I Can See The Light
DR14 -2.62 dB -19.59 dB 11:06 16-I Heard It Through The Grapevine
DR14 -3.97 dB -20.40 dB 2:40 17-Have you ever seen the rain
DR14 -2.90 dB -19.67 dB 2:43 18-Hey tonight
DR13 -3.36 dB -19.30 dB 2:56 19-Sweet hitch-hiker
DR14 -1.55 dB -20.66 dB 4:02 20-Someday never comes

Number of tracks: 20
Official DR value: DR14

Samplerate: 44100 Hz
Channels: 2
Bits per sample: 16
Bitrate: 799 kbps
Codec: FLAC

[CUETools log; Date: 12.07.2015 18:44:24; Version: 2.1.5]
Pregap length 00:00:37.
[CTDB TOCID: 5R0hZhB5ljtxoKRhy0Y3drmpTgU-] found.
Track | CTDB Status
1 | (2/2) Accurately ripped
2 | (2/2) Accurately ripped
3 | (2/2) Accurately ripped
4 | (2/2) Accurately ripped
5 | (2/2) Accurately ripped
6 | (2/2) Accurately ripped
7 | (2/2) Accurately ripped
8 | (2/2) Accurately ripped
9 | (2/2) Accurately ripped
10 | (2/2) Accurately ripped
11 | (2/2) Accurately ripped
12 | (2/2) Accurately ripped
13 | (2/2) Accurately ripped
14 | (2/2) Accurately ripped
15 | (2/2) Accurately ripped
16 | (2/2) Accurately ripped
17 | (2/2) Accurately ripped
18 | (2/2) Accurately ripped
19 | (2/2) Accurately ripped
20 | (2/2) Accurately ripped
[AccurateRip ID: 002f2f53-02b24794-280ffb14] found.
Track [ CRC | V2 ] Status
01 [00370f71|b7ed3141] (04+04/08) Accurately ripped
02 [92c90d2f|e4bc7ce2] (04+04/08) Accurately ripped
03 0cc342e|3650ccc6 (04+04/08) Accurately ripped
04 [28d0c59d|b14ec0cc] (04+05/09) Accurately ripped
05 [910e6e6e|138158d7] (04+04/08) Accurately ripped
06 [50efd1c6|9f7cfdda] (04+04/08) Accurately ripped
07 [af2ab395|bc3cd744] (04+04/08) Accurately ripped
08 [f1823965|79a83b7e] (04+04/08) Accurately ripped
09 [d2c8fe2b|4aba8b76] (04+05/09) Accurately ripped
10 [cb15baca|e162d7ac] (04+05/09) Accurately ripped
11 [369b4779|9ea66e20] (04+05/09) Accurately ripped
12 [84f29503|109a1d5a] (04+04/08) Accurately ripped
13 [eaa414a8|4a5a94b6] (04+05/09) Accurately ripped
14 [2162d1ea|ff6aa43e] (04+05/09) Accurately ripped
15 [2f12f88e|dafad185] (05+05/10) Accurately ripped
16 [4dc58d36|dbfdc6cd] (04+04/08) Accurately ripped
17 [8274b4c6|eb820949] (04+04/08) Accurately ripped
18 [eecfea65|34cecfc1] (04+05/09) Accurately ripped
19 a764bcd|a3ca814e (04+05/09) Accurately ripped
20 [c71b4b93|031b1da8] (04+04/08) Accurately ripped

Track Peak [ CRC32 ] [W/O NULL] [ LOG ]
-- 93,5 [4A6A299A] [8DAB856E] CRC32
01 65,3 [A886BC59] [F5CCA2D4]
02 69,7 [94F7FB54] [571F36D1]
03 76,3 [6EC6A31C] [9BCEDFF3]
04 74,2 [59A3239A] [AE184955]
05 69,7 [3A34C1EE] [6C62F327]
06 55,6 F1A5371 [FB1C16A3]
07 93,5 [3C1C74DD] [F68C04F4]
08 67,7 DDC43D9 [43F942C2]
09 61,8 [4CDFD110] [602C39E5]
10 79,1 34FF924 [76F721A5]
11 63,3 [59B1A580] [536C386C]
12 57,5 [40BB6CF2] [63BBE919]
13 52,9 [AFB968D0] 2DF1D10
14 60,6 [E5A8E725] [1CA3F56A]
15 62,7 [73D7649E] [80BDF571]
16 74,0 [F3EEF4FF] [7EB338BD]
17 63,3 [14F984B0] [37A1AC4F]
18 71,5 [A51AA735] [606C95D4]
19 67,9 [1CE1AB60] [7B4D3CA2]
20 83,6 [59E361D9] [821E1897]

Creedence Clearwater Revival - Chronicle: Volume 1 & 2 (1990) [2CD Set, Japan, VICP-40025/40026]

Track List CD2 - Chronicle Volume Two:

01. Walk On The Water [04:42]
02. Susie Q (Part 2) [04:05]
03. Born On The Bayou [05:17]
04. Good Golly Miss Molly [02:44]
05. Tombstone Shadow [03:40]
06. Wrote A Song For Everyone [05:00]
07. Night Time Is The Right Time [03:10]
08. Cotton Fields [02:59]
09. It Came Out Of The Sky [02:57]
10. Don't Look Now (It Ain't You Or Me) [02:12]
11. The Midnight Special [04:13]
12. Before You Accuse Me [03:28]
13. My Baby Left Me [02:21]
14. Pagan Baby [06:26]
15. (Wish I Could) Hideaway [03:51]
16. It's Just A Thought [03:59]
17. Molina [02:09]
18. Born To Move [05:43]
19. Lookin' For A Reason [03:30]
20. Hello Mary Lou [02:14]

Exact Audio Copy V1.0 beta 4 from 7. December 2014

Отчёт EAC об извлечении, выполненном 7. июля 2015, 22:14

Creedence Clearwater Revival / Chronicle - Vol. 2

Дисковод: ASUS DRW-24F1ST a Adapter: 1 ID: 0

Режим чтения : Достоверность
Использование точного потока : Да
Отключение кэша аудио : Да
Использование указателей C2 : Нет

Коррекция смещения при чтении : 6
Способность читать области Lead-in и Lead-out : Нет
Заполнение пропущенных сэмплов тишиной : Да
Удаление блоков с тишиной в начале и конце : Нет
При вычислениях CRC использовались нулевые сэмплы : Да
Интерфейс : Встроенный Win32-интерфейс для Win NT/2000

Выходной формат : Пользовательский кодировщик
Выбранный битрейт : 128 kBit/s
Качество : Высокий
Добавление ID3-тега : Нет
Утилита сжатия : C:\Program Files\Exact Audio Copy\Flac\flac.exe
Дополнительные параметры : -V -8 -T "Date=%year%" -T "Genre=%genre%" %source%

TOC извлечённого CD Трек | Старт | Длительность | Начальный сектор | Конечный сектор

1 | 0:00.37 | 4:41.52 | 37 | 21163
2 | 4:42.14 | 4:04.05 | 21164 | 39468
3 | 8:46.19 | 5:16.40 | 39469 | 63208
4 | 14:02.59 | 2:43.30 | 63209 | 75463
5 | 16:46.14 | 3:40.00 | 75464 | 91963
6 | 20:26.14 | 4:59.35 | 91964 | 114423
7 | 25:25.49 | 3:10.00 | 114424 | 128673
8 | 28:35.49 | 2:58.10 | 128674 | 142033
9 | 31:33.59 | 2:56.48 | 142034 | 155281
10 | 34:30.32 | 2:11.62 | 155282 | 165168
11 | 36:42.19 | 4:12.60 | 165169 | 184128
12 | 40:55.04 | 3:27.55 | 184129 | 199708
13 | 44:22.59 | 2:20.28 | 199709 | 210236
14 | 46:43.12 | 6:25.35 | 210237 | 239146
15 | 53:08.47 | 3:50.57 | 239147 | 256453
16 | 56:59.29 | 3:58.58 | 256454 | 274361
17 | 60:58.12 | 2:08.25 | 274362 | 283986
18 | 63:06.37 | 5:42.60 | 283987 | 309696
19 | 68:49.22 | 3:29.40 | 309697 | 325411
20 | 72:18.62 | 2:13.60 | 325412 | 335446

Характеристики диапазона извлечения и сообщения об ошибках

Выбранный диапазон Имя файла C:\Users\Erik\Desktop\Creedence Clearwater Revival - Chronicle - Vol. 2.wav Пиковый уровень 97.1 %
Скорость извлечения 2.3 X
Качество диапазона 100.0 %
CRC теста 5F724784
CRC копии 5F724784
Копирование... OK

Ошибок не произошло


AccurateRip: сводка

Трек 1 : извлечено точно (доверие 4) [2412E497] (AR v2)
Трек 2 : извлечено точно (доверие 5) [F90A5ABE] (AR v2)
Трек 3 : извлечено точно (доверие 4) [1A8B24E0] (AR v2)
Трек 4 : извлечено точно (доверие 4) [4735C1AE] (AR v2)
Трек 5 : извлечено точно (доверие 4) [4D934BCC] (AR v2)
Трек 6 : извлечено точно (доверие 5) 62F6E52 (AR v2)
Трек 7 : извлечено точно (доверие 4) [4C46E1B7] (AR v2)
Трек 8 : извлечено точно (доверие 4) [9945ED54] (AR v2)
Трек 9 : извлечено точно (доверие 4) [9AD05E6B] (AR v2)
Трек 10 : извлечено точно (доверие 4) [13FA2F9C] (AR v2)
Трек 11 : извлечено точно (доверие 4) [8F364F15] (AR v2)
Трек 12 : извлечено точно (доверие 4) [6FBA2BF4] (AR v2)
Трек 13 : извлечено точно (доверие 4) 04A6E1C (AR v2)
Трек 14 : извлечено точно (доверие 4) [8D304C1E] (AR v2)
Трек 15 : извлечено точно (доверие 3) [5472E6DB] (AR v2)
Трек 16 : извлечено точно (доверие 5) [53D16178] (AR v2)
Трек 17 : извлечено точно (доверие 4) [D792C625] (AR v2)
Трек 18 : извлечено точно (доверие 4) [1306E0F7] (AR v2)
Трек 19 : извлечено точно (доверие 5) [525A5F00] (AR v2)
Трек 20 : извлечено точно (доверие 5) [F3D7E240] (AR v2)

Все треки извлечены точно

Конец отчёта

- CUETools DB Plugin V2.1.4

[CTDB TOCID: bFnU_Uefz6gORJWyZHOoQ7_k7jA-] found
Submit result: bFnU_Uefz6gORJWyZHOoQ7_k7jA- has been confirmed
Track | CTDB Status
1 | (1/1) Accurately ripped
2 | (1/1) Accurately ripped
3 | (1/1) Accurately ripped
4 | (1/1) Accurately ripped
5 | (1/1) Accurately ripped
6 | (1/1) Accurately ripped
7 | (1/1) Accurately ripped
8 | (1/1) Accurately ripped
9 | (1/1) Accurately ripped
10 | (1/1) Accurately ripped
11 | (1/1) Accurately ripped
12 | (1/1) Accurately ripped
13 | (1/1) Accurately ripped
14 | (1/1) Accurately ripped
15 | (1/1) Accurately ripped
16 | (1/1) Accurately ripped
17 | (1/1) Accurately ripped
18 | (1/1) Accurately ripped
19 | (1/1) Accurately ripped
20 | (1/1) Accurately ripped

==== Контрольная сумма отчёта F0A77DD25D13F2B9E09F0A676F9F701034178DDD5639BAA932545882B5B66E79 ====

foobar2000 1.2.6 / Dynamic Range Meter 1.1.1
log date: 2015-07-12 18:46:33

Analyzed: Creedence Clearwater Revival / Chronicle - Vol. 2

DR Peak RMS Duration Track

DR13 -3.07 dB -17.38 dB 4:42 01-Walk On The Water
DR12 -4.40 dB -19.94 dB 4:04 02-Susie Q (Part 2)
DR15 -0.44 dB -18.15 dB 5:17 03-Born On The Bayou
DR15 -1.34 dB -17.29 dB 2:43 04-Good Golly Miss Molly
DR14 -1.62 dB -17.89 dB 3:40 05-Tombstone Shadow
DR16 -0.25 dB -19.31 dB 4:59 06-Wrote A Song For Everyone
DR13 -2.20 dB -18.09 dB 3:10 07-Night Time Is The Right Time
DR13 -3.35 dB -19.02 dB 2:58 08-Cotton Fields
DR13 -3.64 dB -18.48 dB 2:57 09-It Came Out Of The Sky
DR13 -4.03 dB -19.35 dB 2:12 10-Don't Look Now (It Ain't You Or Me)
DR14 -2.01 dB -18.81 dB 4:13 11-The Midnight Special
DR15 -1.10 dB -18.85 dB 3:28 12-Before You Accuse Me
DR13 -2.98 dB -18.21 dB 2:20 13-My Baby Left Me
DR13 -1.72 dB -16.98 dB 6:25 14-Pagan Baby
DR14 -3.51 dB -20.97 dB 3:51 15-(Wish I Could) Hideaway
DR15 -2.81 dB -20.60 dB 3:59 16-It's Just A Thought
DR13 -2.31 dB -17.38 dB 2:08 17-Molina
DR14 -2.01 dB -17.86 dB 5:43 18-Born To Move
DR15 -1.20 dB -18.95 dB 3:30 19-Lookin' For A Reason
DR13 -2.30 dB -18.44 dB 2:14 20-Hello Mary Lou

Number of tracks: 20
Official DR value: DR14

Samplerate: 44100 Hz
Channels: 2
Bits per sample: 16
Bitrate: 796 kbps
Codec: FLAC

[CUETools log; Date: 12.07.2015 18:48:42; Version: 2.1.5]
Pregap length 00:00:37.
[CTDB TOCID: bFnU_Uefz6gORJWyZHOoQ7_k7jA-] found.
Track | CTDB Status
1 | (2/2) Accurately ripped
2 | (2/2) Accurately ripped
3 | (2/2) Accurately ripped
4 | (2/2) Accurately ripped
5 | (2/2) Accurately ripped
6 | (2/2) Accurately ripped
7 | (2/2) Accurately ripped
8 | (2/2) Accurately ripped
9 | (2/2) Accurately ripped
10 | (2/2) Accurately ripped
11 | (2/2) Accurately ripped
12 | (2/2) Accurately ripped
13 | (2/2) Accurately ripped
14 | (2/2) Accurately ripped
15 | (2/2) Accurately ripped
16 | (2/2) Accurately ripped
17 | (2/2) Accurately ripped
18 | (2/2) Accurately ripped
19 | (2/2) Accurately ripped
20 | (2/2) Accurately ripped
[AccurateRip ID: 00372aef-0320ae37-16117814] found.
Track [ CRC | V2 ] Status
01 [9119dfd0|2412e497] (04+04/08) Accurately ripped
02 [3765d385|f90a5abe] (05+05/10) Accurately ripped
03 [cae10e5e|1a8b24e0] (04+04/08) Accurately ripped
04 [e6a4830b|4735c1ae] (04+04/08) Accurately ripped
05 [35ab5bb8|4d934bcc] (05+04/09) Accurately ripped
06 [6defd1cf|b62f6e52] (05+05/10) Accurately ripped
07 [6dea2870|4c46e1b7] (04+04/08) Accurately ripped
08 [65b00650|9945ed54] (04+04/08) Accurately ripped
09 [e1e600dd|9ad05e6b] (04+04/08) Accurately ripped
10 [6544781b|13fa2f9c] (05+04/09) Accurately ripped
11 [0623f38b|8f364f15] (04+04/08) Accurately ripped
12 [a15b0d76|6fba2bf4] (05+04/09) Accurately ripped
13 [279696a5|b04a6e1c] (05+04/09) Accurately ripped
14 [38e5ceec|8d304c1e] (04+04/08) Accurately ripped
15 db3dc68|5472e6db (04+03/07) Accurately ripped
16 [2eec9245|53d16178] (05+05/10) Accurately ripped
17 [34faafda|d792c625] (04+04/08) Accurately ripped
18 [a3377a6e|1306e0f7] (04+04/08) Accurately ripped
19 [00590e63|525a5f00] (05+05/10) Accurately ripped
20 [caff2385|f3d7e240] (05+05/10) Accurately ripped

Track Peak [ CRC32 ] [W/O NULL] [ LOG ]
-- 97,1 [5F724784] [232E9E92] CRC32
01 70,2 [E9D3B7AB] [3173BBB3]
02 60,2 [998DE1BD] [797C0203]
03 95,0 891512F [EC9242CE]
04 85,7 [C4AC32BA] [4C1C1AD5]
05 83,0 [2EDA188B] [3954B279]
06 97,1 [96B9EF97] [31210BCB]
07 77,6 [DDD6A9DF] [5C874198]
08 67,9 [0F8C40B4] [F2589DAE]
09 65,7 [2E8ED1AC] [FCA39A75]
10 62,8 [D35A22F3] [2CA7BA2B]
11 79,3 [D1C43793] F5A9C9C
12 88,1 [33A1F561] [EEF7F911]
13 70,9 [27572C7E] [7ED87422]
14 82,0 [F5BD0F72] [7F538268]
15 66,7 [68BC1CCB] [D8DB177B]
16 72,3 [DCC49B8A] [FC0AE6B1]
17 76,6 [21DC09A8] [3C165BD1]
18 79,3 [FBE9AE4C] [A0760072]
19 87,0 [75A3003C] [F3205391]
20 76,7 [EA1F5A37] [AADF2FD4]

Creedence Clearwater Revival - Chronicle: Volume 1 & 2 (1990) [2CD Set, Japan, VICP-40025/40026]



Download Links:
(Premium Recommended)


All above links are interchangable. No password

Direct Download

Tags: Creedence, Clearwater, Revival, Chronicle

Creedence Clearwater Revival - Chronicle: Volume 1 & 2 (1990) [2CD Set, Japan, VICP-40025/40026] Download via Hotfile Rapidshare Fileserve Megaupload & FileSonic, Creedence Clearwater Revival - Chronicle: Volume 1 & 2 (1990) [2CD Set, Japan, VICP-40025/40026] free torrent downloads included crack, serial, keygen.


Attention!Information

Members of Guest cannot leave comments.