Frank Zappa - Have I Offended Someone (1997) {2012 Zappa Records Remaster}

Download Now


Frank Zappa - Have I Offended Someone (1997) {2012 Zappa Records Remaster}
Frank Zappa - Have I Offended Someone (1997) {2012 Zappa Records Remaster}
EAC rip (secure mode) | FLAC (tracks)+CUE+LOG -> 451 Mb | MP3 @320 -> 152 Mb
Full Artwork @ 600 dpi (png) -> 209 Mb | 5% repair rar
© 2012 ZFT / Universal | 0238902
Rock / Jazz Rock / Experimental Rock / Art Rock

"Official Release #67. As the title suggests, Have I Offended Someone? contains all of Zappa's notoriously tasteless parodies and satires, from "Bobby Brown Goes Down," "Catholic Girls," and "Jewish Princess" to "He's So Gay," "Titties 'n Beer," and "Dinah-Moe Humm." Nearly all of the tracks are presented in new remixed versions, and two songs, "Dumb All Over" and "Tinsel Town Rebellion," have never been released before."

Frank Zappa - Have I Offended Someone (1997) {2012 Zappa Records Remaster}


tracklist:
01 - Bobby Brown Goes Down
02 - Disco Boy
03 - Goblin Girl
04 - In France
05 - He's So Gay
06 - SEX
07 - Titties 'N Beer
08 - We're Turning Again
09 - Dumb All Over
10 - Catholic Girls
11 - Dinah-Moe Humm
12 - Tinsel Town Rebellion
13 - Valley Girl
14 - Jewish Princess
15 - Yo Cats

Exact Audio Copy V1.0 beta 6 from 9. April 2015

EAC extraction logfile from 27. June 2015, 19:35

Frank Zappa / Have I Offended Someone?

Used drive : ATAPI iHAS124 B Adapter: 2 ID: 0

Read mode : Secure
Utilize accurate stream : Yes
Defeat audio cache : Yes
Make use of C2 pointers : No

Read offset correction

: 6
Overread into Lead-In and Lead-Out : No
Fill up missing offset samples with silence : Yes
Delete leading and trailing silent blocks : No
Null samples used in CRC calculations : Yes
Used interface
: Installed external ASPI interface
Gap handling
: Appended to previous track

Used output format : User Defined Encoder
Selected bitrate : 1024 kBit/s
Quality : High
Add ID3 tag : No
Command line compressor : C:\Program Files (x86)\FLAC Frontend\tools\flac.exe
Additional command line options : -8 -V -T "ARTIST=%artist%" -T "TITLE=%title%" -T "ALBUM=%albumtitle%" -T "DATE=%year%" -T "TRACKNUMBER=%tracknr%" -T "TOTALTRACKS=%numtracks%" -T "GENRE=%genre%" -T "ALBUMARTIST=%albumartist%" -T "ALBUM ARTIST=%albumartist%" -T "COMMENT=EAC Secure Mode, Test & Copy, AccurateRip, FLAC -8" %source%

TOC of the extracted CD Track | Start | Length | Start sector | End sector
--1 | 0:00.00 | 2:43.17 | 0 | 12241 2 | 2:43.17 | 4:23.06 | 12242 | 31972 3 | 7:06.23 | 4:19.20 | 31973 | 51417 4 | 11:25.43 | 3:30.44 | 51418 | 67211 5 | 14:56.12 | 2:45.02 | 67212 | 79588 6 | 17:41.14 | 3:44.00 | 79589 | 96388 7 | 21:25.14 | 4:37.12 | 96389 | 117175 8 | 26:02.26 | 4:56.49 | 117176 | 139424 9 | 30:59.00 | 5:43.43 | 139425 | 165192
10 | 36:42.43 | 3:51.71 | 165193 | 182588
11 | 40:34.39 | 7:14.01 | 182589 | 215139
12 | 47:48.40 | 4:24.12 | 215140 | 234951
13 | 52:12.52 | 4:50.49 | 234952 | 256750
14 | 57:03.26 | 3:15.07 | 256751 | 271382
15 | 60:18.33 | 3:32.62 | 271383 | 287344

Track 1 Filename D:\_EAC\Frank Zappa - Have I Offended Someone (1997) [FLAC] {2012 Zappa Records Remaster}\01 - Bobby Brown Goes Down.wav Pre-gap length 0:00:02.00 Peak level 100.0 %
Extraction speed 3.2 X
Track quality 100.0 %
Test CRC D33DA756
Copy CRC D33DA756
Accurately ripped (confidence 6) [60F04E9F] (AR v2)
Copy OK

Track 2 Filename D:\_EAC\Frank Zappa - Have I Offended Someone (1997) [FLAC] {2012 Zappa Records Remaster}\02 - Disco Boy.wav Peak level 100.0 %
Extraction speed 3.9 X
Track quality 100.0 %
Test CRC 50478B26
Copy CRC 50478B26
Accurately ripped (confidence 6) [0D899CA2] (AR v2)
Copy OK

Track 3 Filename D:\_EAC\Frank Zappa - Have I Offended Someone (1997) [FLAC] {2012 Zappa Records Remaster}\03 - Goblin Girl.wav Peak level 100.0 %
Extraction speed 3.5 X
Track quality 99.9 %
Test CRC CB27CE1C
Copy CRC CB27CE1C
Accurately ripped (confidence 6) DEBB6A5 (AR v2)
Copy OK

Track 4 Filename D:\_EAC\Frank Zappa - Have I Offended Someone (1997) [FLAC] {2012 Zappa Records Remaster}\04 - In France.wav Peak level 95.5 %
Extraction speed 4.4 X
Track quality 100.0 %
Test CRC 74610C7A
Copy CRC 74610C7A
Accurately ripped (confidence 6) [E98A5FE7] (AR v2)
Copy OK

Track 5 Filename D:\_EAC\Frank Zappa - Have I Offended Someone (1997) [FLAC] {2012 Zappa Records Remaster}\05 - He's So Gay.wav Peak level 100.0 %
Extraction speed 3.3 X
Track quality 99.9 %
Test CRC 6B9CFEFE
Copy CRC 6B9CFEFE
Accurately ripped (confidence 6) [1C40568B] (AR v2)
Copy OK

Track 6 Filename D:\_EAC\Frank Zappa - Have I Offended Someone (1997) [FLAC] {2012 Zappa Records Remaster}\06 - SEX.wav Peak level 99.1 %
Extraction speed 4.9 X
Track quality 100.0 %
Test CRC 69C47EDF
Copy CRC 69C47EDF
Accurately ripped (confidence 6) [537D5391] (AR v2)
Copy OK

Track 7 Filename D:\_EAC\Frank Zappa - Have I Offended Someone (1997) [FLAC] {2012 Zappa Records Remaster}\07 - Titties 'N Beer.wav Peak level 100.0 %
Extraction speed 5.3 X
Track quality 100.0 %
Test CRC C3670422
Copy CRC C3670422
Accurately ripped (confidence 6) [5E22C004] (AR v2)
Copy OK

Track 8 Filename D:\_EAC\Frank Zappa - Have I Offended Someone (1997) [FLAC] {2012 Zappa Records Remaster}\08 - We're Turning Again.wav Peak level 100.0 %
Extraction speed 5.7 X
Track quality 100.0 %
Test CRC 493F566E
Copy CRC 493F566E
Accurately ripped (confidence 6) [2E56F25F] (AR v2)
Copy OK

Track 9 Filename D:\_EAC\Frank Zappa - Have I Offended Someone (1997) [FLAC] {2012 Zappa Records Remaster}\09 - Dumb All Over.wav Peak level 100.0 %
Extraction speed 6.1 X
Track quality 100.0 %
Test CRC 1F8EFD66
Copy CRC 1F8EFD66
Accurately ripped (confidence 6) [EB81332E] (AR v2)
Copy OK

Track 10 Filename D:\_EAC\Frank Zappa - Have I Offended Someone (1997) [FLAC] {2012 Zappa Records Remaster}\10 - Catholic Girls.wav Peak level 100.0 %
Extraction speed 6.1 X
Track quality 100.0 %
Test CRC 3A0886B2
Copy CRC 3A0886B2
Accurately ripped (confidence 6) [99B3EACC] (AR v2)
Copy OK

Track 11 Filename D:\_EAC\Frank Zappa - Have I Offended Someone (1997) [FLAC] {2012 Zappa Records Remaster}\11 - Dinah-Moe Humm.wav Peak level 100.0 %
Extraction speed 6.8 X
Track quality 100.0 %
Test CRC 05A2A5FA
Copy CRC 05A2A5FA
Accurately ripped (confidence 5) [C0724140] (AR v2)
Copy OK

Track 12 Filename D:\_EAC\Frank Zappa - Have I Offended Someone (1997) [FLAC] {2012 Zappa Records Remaster}\12 - Tinsel Town Rebellion.wav Peak level 100.0 %
Extraction speed 6.8 X
Track quality 100.0 %
Test CRC 1EAC5772
Copy CRC 1EAC5772
Accurately ripped (confidence 5) [3CE1A8DF] (AR v2)
Copy OK

Track 13 Filename D:\_EAC\Frank Zappa - Have I Offended Someone (1997) [FLAC] {2012 Zappa Records Remaster}\13 - Valley Girl.wav Peak level 88.3 %
Extraction speed 7.1 X
Track quality 100.0 %
Test CRC 04481FD6
Copy CRC 04481FD6
Accurately ripped (confidence 5) [A53FD982] (AR v2)
Copy OK

Track 14 Filename D:\_EAC\Frank Zappa - Have I Offended Someone (1997) [FLAC] {2012 Zappa Records Remaster}\14 - Jewish Princess.wav Peak level 100.0 %
Extraction speed 6.8 X
Track quality 100.0 %
Test CRC 20AA70A8
Copy CRC 20AA70A8
Accurately ripped (confidence 5) [440E7160] (AR v2)
Copy OK

Track 15 Filename D:\_EAC\Frank Zappa - Have I Offended Someone (1997) [FLAC] {2012 Zappa Records Remaster}\15 - Yo Cats.wav Peak level 100.0 %
Extraction speed 5.5 X
Track quality 99.9 %
Test CRC 1496C123
Copy CRC 1496C123
Accurately ripped (confidence 5) [6DD97A18] (AR v2)
Copy OK

All tracks accurately ripped

No errors occurred

End of status report

==== Log checksum 11743F4CAC60931425263C984C0F158D85972070ED1F7C69E8B0E6C05E1AFC06 ====

Frank Zappa - Have I Offended Someone (1997) {2012 Zappa Records Remaster}

Frank Zappa - Have I Offended Someone (1997) {2012 Zappa Records Remaster}


Download Links:
(Premium Recommended)


All above links are interchangable. No password

Direct Download

Tags: Offended, Someone, Records, Remaster

Frank Zappa - Have I Offended Someone (1997) {2012 Zappa Records Remaster} Download via Hotfile Rapidshare Fileserve Megaupload & FileSonic, Frank Zappa - Have I Offended Someone (1997) {2012 Zappa Records Remaster} free torrent downloads included crack, serial, keygen.


Attention!Information

Members of Guest cannot leave comments.