Pat Metheny with Dave Holland & Roy Haynes - Question And Answer (1990)

Download Now

Pat Metheny with Dave Holland & Roy Haynes - Question And Answer (1990)

Pat Metheny with Dave Holland & Roy Haynes - Question And Answer (1990)
EAC | FLAC | Image (Cue&Log) ~ 421 Mb (incl 5%) | Mp3 (CBR320) ~ 187 Mb (incl 5%) | Scans included
Genre: Crossover Jazz, Post-Bop | Label: Geffen | # GED 24293, GEFD 24293 | Time: 01:02:53

"Here you have three absolutely breathtaking jazz performers locked into a studio for a day or so. From this combination of guitar, standup bass, and acoustic drum kit, you've got nine tracks of sheer jazz joy -- three guys just blowing for the hell of it, recorded on the fly. There's a strong sense here that engineer Rob Eaton probably tried to get everybody properly set up and balanced before the session started and just gave up when everybody started playing. It's a delight to hear, because everything has gone into the performance, which is spontaneous and graceful -- no going back for the next take here. Pat Metheny's playing is definitely modernistic, highly fluid, almost liquid lightning -- no effects boxes here, though (he does play Synclavier on the last track, "Three Flights Up," but it's great anyway). Roy Haynes, likewise, should be heard by anybody wanting to get behind the traps: this man has a sense of humor, and he's a blur of motion. Dave Holland, on bass, is no slouch either, keeping pace with Metheny's guitar lines, and balancing up against Haynes' drums. Together, these guys are incredible."



Tracklist:

01. Solar (08:27)
02. Question And Answer (07:10)
03. H & H (06:51)
04. Never Too Far Away (05:54)
05. Law Years (06:55)
06. Change Of Heart (06:16)
07. All The Things You Are (08:26)
08. Old Folks (06:40)
09. Three Flights Up (06:11)


Exact Audio Copy V1.0 beta 3 from 29. August 2011

EAC extraction logfile from 12. December 2014, 14:14

Pat Metheny w. Dave Holland & Roy Haynes / Question And Answer (GED 24293)

Used drive : HL-DT-STDVDRAM GE20NU11 Adapter: 0 ID: 1

Read mode : Secure
Utilize accurate stream : Yes
Defeat audio cache : Yes
Make use of C2 pointers : No

Read offset correction

: 667
Overread into Lead-In and Lead-Out : No
Fill up missing offset samples with silence : Yes
Delete leading and trailing silent blocks : No
Null samples used in CRC calculations : Yes
Used interface
: Native Win32 interface for Win NT & 2000

Used output format : User Defined Encoder
Selected bitrate : 896 kBit/s
Quality : High
Add ID3 tag : No
Command line compressor : C:\Program Files\EAC 3\Exact Audio Copy\Flac\flac.exe
Additional command line options : -V -8 %source%

TOC of the extracted CD Track | Start | Length | Start sector | End sector
--1 | 0:00.00 | 8:27.30 | 0 | 38054 2 | 8:27.30 | 7:10.20 | 38055 | 70324 3 | 15:37.50 | 6:51.27 | 70325 | 101176 4 | 22:29.02 | 5:54.53 | 101177 | 127779 5 | 28:23.55 | 6:55.45 | 127780 | 158949 6 | 35:19.25 | 6:16.17 | 158950 | 187166 7 | 41:35.42 | 8:26.33 | 187167 | 225149 8 | 50:02.00 | 6:40.00 | 225150 | 255149 9 | 56:42.00 | 6:11.22 | 255150 | 282996

Range status and errors

Selected range Filename C:\OdW\Pat Metheny w. Dave Holland & Roy Haynes (1990) Question And Answer (GED 24293)\Pat Metheny w. Dave Holland & Roy Haynes - Question And Answer (GED 24293).wav Peak level 97.2 %
Extraction speed 1.3 X
Range quality 100.0 %
Test CRC 27A6EA0C
Copy CRC 27A6EA0C
Copy OK

No errors occurred


AccurateRip summary

Track 1 accurately ripped (confidence 15) [A3F9DC7C] (AR v2)
Track 2 accurately ripped (confidence 15) [6F81B88A] (AR v2)
Track 3 accurately ripped (confidence 15) [5918731C] (AR v2)
Track 4 accurately ripped (confidence 15) [F45CBA68] (AR v2)
Track 5 accurately ripped (confidence 15) [4627784F] (AR v2)
Track 6 accurately ripped (confidence 15) [3913744C] (AR v2)
Track 7 accurately ripped (confidence 15) [C73EC266] (AR v2)
Track 8 accurately ripped (confidence 14) 76766C7 (AR v2)
Track 9 accurately ripped (confidence 15) [1125FBD2] (AR v2)

All tracks accurately ripped

End of status report

==== Log checksum F0FB052B80584E4646D879BDBC5DA345EC1C0796FAB7ABB822BAE6ECA87B2D0E ====

foobar2000 1.2 / Dynamic Range Meter 1.1.1
log date: 2015-07-14 17:22:52

Analyzed: Pat Metheny, Dave Holland, Roy Haynes / Question And Answer (GED 24293)

DR Peak RMS Duration Track

DR17 -0.24 dB -20.04 dB 8:27 01-Solar
DR12 -2.46 dB -19.35 dB 7:10 02-Question And Answer
DR16 -0.24 dB -18.35 dB 6:51 03-H & H
DR12 -6.96 dB -22.16 dB 5:55 04-Never Too Far Away
DR16 -0.24 dB -19.00 dB 6:56 05-Law Years
DR17 -0.24 dB -20.21 dB 6:16 06-Change Of Heart
DR17 -0.24 dB -19.99 dB 8:26 07-All The Things You Are
DR15 -3.45 dB -22.55 dB 6:40 08-Old Folks
DR17 -0.24 dB -19.50 dB 6:11 09-Three Flights Up

Number of tracks: 9
Official DR value: DR16

Samplerate: 44100 Hz
Channels: 2
Bits per sample: 16
Bitrate: 815 kbps
Codec: FLAC

Pat Metheny with Dave Holland & Roy Haynes - Question And Answer (1990)

Pat Metheny with Dave Holland & Roy Haynes - Question And Answer (1990)

All thanks to original releaser - Olaf der Weisse
Password: designol

Download Links:
(Premium Recommended)


All above links are interchangable. No password

Direct Download

Tags: Metheny, Holland, Haynes, Question, Answer

Pat Metheny with Dave Holland & Roy Haynes - Question And Answer (1990) Download via Hotfile Rapidshare Fileserve Megaupload & FileSonic, Pat Metheny with Dave Holland & Roy Haynes - Question And Answer (1990) free torrent downloads included crack, serial, keygen.


Attention!Information

Members of Guest cannot leave comments.