Uriah Heep - Demons And Wizards (1972) [1990, US, Mercury 812 297-2]

Download Now

Uriah Heep - Demons And Wizards (1972) [1990, US, Mercury 812 297-2]

Uriah Heep - Demons And Wizards (1972/1990)
EAC Rip | FLAC (Img) + Cue + Log ~ 287 Mb | MP3 CBR320 ~ 117 Mb
Scans Included (JPG, 600 dpi) | RAR 5% Recovery
Hard Rock, Progressive Rock | Mercury #812 297-2

"These UK hard rockers made their biggest splash in the States with this 1972 album. Heep leaps from the acoustic to the heavy-hitting to the downright epic as they do their smash Easy Livin' plus The Wizard; Rainbow Demon; Traveller in Time , and more!"

Official Website | Wiki | Discogs | All Music
***************

Uriah Heep - Demons And Wizards (1972) [1990, US, Mercury 812 297-2]

Track List:

01. The Wizard [03:03]
02. Traveller in Time [03:28]
03. Easy Livin' [02:39]
04. Poet's Justice [04:18]
05. Circle Of Hands [06:28]
06. Rainbow Demon [04:28]
07. All My Life [02:48]
08. The Spell [12:43]

Exact Audio Copy V1.0 beta 1 from 15. November 2010

EAC extraction logfile from 16. July 2015, 4:16

Uriah Heep / Demons And Wizards

Used drive : MATSHITADVD-RAM UJ8A0AS Adapter: 0 ID: 1

Read mode : Secure
Utilize accurate stream : Yes
Defeat audio cache : Yes
Make use of C2 pointers : No

Read offset correction

: 102
Overread into Lead-In and Lead-Out : No
Fill up missing offset samples with silence : Yes
Delete leading and trailing silent blocks : No
Null samples used in CRC calculations : Yes
Used interface
: Native Win32 interface for Win NT & 2000

Used output format : Internal WAV Routines
Sample format : 44.100 Hz; 16 Bit; Stereo

TOC of the extracted CD Track | Start | Length | Start sector | End sector
--1 | 0:00.33 | 3:02.20 | 33 | 13702 2 | 3:02.53 | 3:27.30 | 13703 | 29257 3 | 6:30.08 | 2:38.32 | 29258 | 41139 4 | 9:08.40 | 4:17.43 | 41140 | 60457 5 | 13:26.08 | 6:27.10 | 60458 | 89492 6 | 19:53.18 | 4:27.65 | 89493 | 109582 7 | 24:21.08 | 2:47.50 | 109583 | 122157 8 | 27:08.58 | 12:42.50 | 122158 | 179357

Range status and errors

Selected range Filename C:\Users\Alex\Music\Uriah Heep - Demons And Wizards.wav Peak level 100.0 %
Extraction speed 0.3 X
Range quality 100.0 %
Test CRC 9C11A1C4
Copy CRC 9C11A1C4
Copy OK

No errors occurred


AccurateRip summary

Track 1 accurately ripped (confidence 32) [9157C9EB]
Track 2 accurately ripped (confidence 32) [E4F3A8A8]
Track 3 accurately ripped (confidence 32) [723A5D70]
Track 4 accurately ripped (confidence 32) [C9647BEF]
Track 5 accurately ripped (confidence 32) [725FB4F7]
Track 6 accurately ripped (confidence 32) [119CA5B9]
Track 7 accurately ripped (confidence 32) [0C043239]
Track 8 accurately ripped (confidence 32) [50225030]

All tracks accurately ripped

End of status report

==== Log checksum 39457DA5D240E2CD116381838A12EDBBCD467A7387A3C8C158FD9C74DE4A69B3 ====

foobar2000 1.2.6 / Dynamic Range Meter 1.1.1
log date: 2015-07-16 14:00:14

Analyzed: Uriah Heep / Demons And Wizards

DR Peak RMS Duration Track

DR13 -1.04 dB -16.78 dB 3:02 01-The Wizard
DR12 0.00 dB -14.47 dB 3:27 02-Traveller in Time
DR11 0.00 dB -12.88 dB 2:38 03-Easy Livin'
DR11 -1.34 dB -14.25 dB 4:18 04-Poet's Justice
DR11 0.00 dB -13.31 dB 6:27 05-Circle Of Hands
DR10 0.00 dB -13.71 dB 4:28 06-Rainbow Demon
DR10 -1.81 dB -14.04 dB 2:48 07-All My Life
DR12 0.00 dB -14.53 dB 12:43 08-The Spell

Number of tracks: 8
Official DR value: DR11

Samplerate: 44100 Hz
Channels: 2
Bits per sample: 16
Bitrate: 886 kbps
Codec: FLAC

[CUETools log; Date: 16.07.2015 13:59:58; Version: 2.1.5]
Pregap length 00:00:33.
[CTDB TOCID: hqrNFh6Oc2UNMH5euDskTh6JaZY-] found.
Track | CTDB Status
1 | (13/16) Accurately ripped
2 | (13/16) Accurately ripped
3 | (13/16) Accurately ripped
4 | (13/16) Accurately ripped
5 | (13/16) Accurately ripped
6 | (13/16) Accurately ripped
7 | (13/16) Accurately ripped
8 | (13/16) Accurately ripped
[AccurateRip ID: 0009d840-00445294-5f095708] found.
Track [ CRC | V2 ] Status
01 [9157c9eb|578cab0a] (011+032/105) Accurately ripped
02 [e4f3a8a8|162ee1a2] (011+032/105) Accurately ripped
03 [723a5d70|db7a6147] (011+032/105) Accurately ripped
04 [c9647bef|24d86433] (011+032/105) Accurately ripped
05 [725fb4f7|666dd71b] (011+032/105) Accurately ripped
06 [119ca5b9|90360f3d] (011+032/105) Accurately ripped
07 [0c043239|edeebd4b] (011+032/105) Accurately ripped
08 [50225030|576c60f2] (010+032/099) Accurately ripped

Track Peak [ CRC32 ] [W/O NULL] [ LOG ]
-- 100,0 [9C11A1C4] [89B51394] CRC32
01 88,6 [C42FB255] [3950993D]
02 100,0 [5C844414] 74E8395
03 100,0 [AA1F4CAF] [066A2B5D]
04 85,6 [83A58513] [CD889E3B]
05 100,0 [996926B9] [7F268011]
06 100,0 [48E67670] [088071C6]
07 81,2 [C05BFBC8] [F58C01B7]
08 100,0 [44DDC4E3] [F8195B44]

Uriah Heep - Demons And Wizards (1972) [1990, US, Mercury 812 297-2]


DOWNLOAD LINKS:
Buy Premium To Support Me & Get Resumable Support & Max Speed


Links are Interchangeable - No Password - Single Extraction

Direct Download

Tags: Demons, Wizards, Mercury

Uriah Heep - Demons And Wizards (1972) [1990, US, Mercury 812 297-2] Download via Hotfile Rapidshare Fileserve Megaupload & FileSonic, Uriah Heep - Demons And Wizards (1972) [1990, US, Mercury 812 297-2] free torrent downloads included crack, serial, keygen.


Attention!Information

Members of Guest cannot leave comments.