Tya - 2 Studio Albums (2003-2007)

Download Now

Tya - 2 Studio Albums (2003-2007)

Tya - 2 Studio Albums (2003-2007)
EAC Rip | FLAC (tracks+.cue+log) - 885 MB | MP3 CBR 320 kbps (LAME 3.93) - 302 MB | Covers - 263 MB
Genre: New Age | RAR 3% Rec. | Label: Prudence

"Tya (Martin Scherl) is a German keyboardist and programmer with an affinity for the music of aboriginal Australia and access to samples of singers like the Bulgarian Voices, Sarband, and Trinovox. Tya will win you over with his melodies, subdued but funky beats, and complex sonic textures. What makes this music so attractive is Tya's two-pronged strategy of bringing the beats right up to the front, and finding good singers to sample and using the samples well. Notice, for example, the combination of African and European voices on ‘Coming Home' and the dubwise treatment he applies to the gorgeous choral singers on ‘Mama'."

Tya - 2 Studio Albums (2003-2007)

Tya - Akwaba (2003)
EAC Rip | FLAC (tracks+.cue+log) - 471 MB | MP3 CBR 320 kbps (LAME 3.93) - 159 MB | Covers - 125 MB
Genre: New Age | RAR 3% Rec. | Label: Prudence (398.6682.2)

Tracklist:
01. Olelo Lohi / Speak Slowly
02. Coming Home
03. Nonamata / Long Ago
04. Why
05. Akwaba
06. Follow the Light
07. Soft Touch
08. A Place to Rest
09. Raindance
10. Mama
11. Naked
12. Daybreak
13. Why (Instrumental)

Total time: 01:07:40

Exact Audio Copy V1.0 beta 3 from 29. August 2011

EAC extraction logfile from 20. April 2014, 9:30

Tya / Akwaba

Used drive : PLEXTOR DVDR PX-760A Adapter: 0 ID: 1

Read mode : Secure
Utilize accurate stream : Yes
Defeat audio cache : Yes
Make use of C2 pointers : No

Read offset correction

: 30
Overread into Lead-In and Lead-Out : No
Fill up missing offset samples with silence : Yes
Delete leading and trailing silent blocks : No
Null samples used in CRC calculations : Yes
Used interface
: Native Win32 interface for Win NT & 2000
Gap handling
: Appended to previous track

Used output format : User Defined Encoder
Selected bitrate : 1024 kBit/s
Quality : High
Add ID3 tag : No
Command line compressor : C:\Program Files (x86)\Exact Audio Copy\Flac\flac.exe
Additional command line options : -8 -V -T "ARTIST=%artist%" -T "TITLE=%title%" -T "ALBUM=%albumtitle%" -T "DATE=%year%" -T "TRACKNUMBER=%tracknr%" -T "GENRE=%genre%" -T "COMMENT=ripped by DrStandBy" %source%

TOC of the extracted CD Track | Start | Length | Start sector | End sector
--1 | 0:00.00 | 5:23.64 | 0 | 24288 2 | 5:23.64 | 5:47.32 | 24289 | 50345 3 | 11:11.21 | 4:44.15 | 50346 | 71660 4 | 15:55.36 | 4:25.41 | 71661 | 91576 5 | 20:21.02 | 5:24.00 | 91577 | 115876 6 | 25:45.02 | 6:13.19 | 115877 | 143870 7 | 31:58.21 | 5:21.39 | 143871 | 167984 8 | 37:19.60 | 5:24.44 | 167985 | 192328 9 | 42:44.29 | 5:18.57 | 192329 | 216235
10 | 48:03.11 | 4:44.58 | 216236 | 237593
11 | 52:47.69 | 5:40.68 | 237594 | 263161
12 | 58:28.62 | 5:02.13 | 263162 | 285824
13 | 63:31.00 | 4:09.13 | 285825 | 304512

Track 1 Filename E:\New Age\Tya\2003 - Tya - Akwaba (Prudence #398.6682.2)\01. Tya - Olelo Lohi , Speak Slowly.wav Pre-gap length 0:00:02.00 Peak level 98.8 %
Extraction speed 1.1 X
Track quality 100.0 %
Test CRC 05A352E0
Copy CRC 05A352E0
Cannot be verified as accurate (confidence 4) [D58A7C7F], AccurateRip returned [F2151266] (AR v2)
Copy OK

Track 2 Filename E:\New Age\Tya\2003 - Tya - Akwaba (Prudence #398.6682.2)\02. Tya - Coming Home.wav Pre-gap length 0:00:01.45 Peak level 98.8 %
Extraction speed 1.1 X
Track quality 100.0 %
Test CRC 661CDAF4
Copy CRC 661CDAF4
Cannot be verified as accurate (confidence 4) [A43946EB], AccurateRip returned [84E25BE5] (AR v2)
Copy OK

Track 3 Filename E:\New Age\Tya\2003 - Tya - Akwaba (Prudence #398.6682.2)\03. Tya - Nonamata , Long Ago.wav Pre-gap length 0:00:01.45 Peak level 98.8 %
Extraction speed 1.0 X
Track quality 99.9 %
Test CRC 5A35502D
Copy CRC 5A35502D
Cannot be verified as accurate (confidence 4) [312356B4], AccurateRip returned [5EACC152] (AR v2)
Copy OK

Track 4 Filename E:\New Age\Tya\2003 - Tya - Akwaba (Prudence #398.6682.2)\04. Tya - Why.wav Pre-gap length 0:00:01.45 Peak level 98.8 %
Extraction speed 1.1 X
Track quality 100.0 %
Test CRC 8D12C93E
Copy CRC 8D12C93E
Cannot be verified as accurate (confidence 4) [A9A3219E], AccurateRip returned [FBF61A93] (AR v2)
Copy OK

Track 5 Filename E:\New Age\Tya\2003 - Tya - Akwaba (Prudence #398.6682.2)\05. Tya - Akwaba.wav Pre-gap length 0:00:01.45 Peak level 98.8 %
Extraction speed 1.0 X
Track quality 99.9 %
Test CRC A4E88050
Copy CRC A4E88050
Cannot be verified as accurate (confidence 4) [01FE6A62], AccurateRip returned [90D97317] (AR v2)
Copy OK

Track 6 Filename E:\New Age\Tya\2003 - Tya - Akwaba (Prudence #398.6682.2)\06. Tya - Follow the Light.wav Pre-gap length 0:00:01.45 Peak level 98.8 %
Extraction speed 1.0 X
Track quality 100.0 %
Test CRC CED67B11
Copy CRC CED67B11
Cannot be verified as accurate (confidence 4) [D3331127], AccurateRip returned [FAF239A1] (AR v2)
Copy OK

Track 7 Filename E:\New Age\Tya\2003 - Tya - Akwaba (Prudence #398.6682.2)\07. Tya - Soft Touch.wav Pre-gap length 0:00:01.45 Peak level 98.8 %
Extraction speed 1.1 X
Track quality 100.0 %
Test CRC 00C924AE
Copy CRC 00C924AE
Cannot be verified as accurate (confidence 4) [F88753F7], AccurateRip returned [6F18C7E2] (AR v2)
Copy OK

Track 8 Filename E:\New Age\Tya\2003 - Tya - Akwaba (Prudence #398.6682.2)\08. Tya - A Place to Rest.wav Pre-gap length 0:00:01.45 Peak level 98.8 %
Extraction speed 1.0 X
Track quality 100.0 %
Test CRC 4414E95D
Copy CRC 4414E95D
Cannot be verified as accurate (confidence 4) [11DF5202], AccurateRip returned [F24BE86C] (AR v2)
Copy OK

Track 9 Filename E:\New Age\Tya\2003 - Tya - Akwaba (Prudence #398.6682.2)\09. Tya - Raindance.wav Pre-gap length 0:00:01.45 Peak level 98.8 %
Extraction speed 0.9 X
Track quality 100.0 %
Test CRC B10FEC83
Copy CRC B10FEC83
Cannot be verified as accurate (confidence 4) [ADD9A38E], AccurateRip returned [94FB1E05] (AR v2)
Copy OK

Track 10 Filename E:\New Age\Tya\2003 - Tya - Akwaba (Prudence #398.6682.2)\10. Tya - Mama.wav Pre-gap length 0:00:01.44 Peak level 98.8 %
Extraction speed 1.1 X
Track quality 100.0 %
Test CRC 2374F8A8
Copy CRC 2374F8A8
Cannot be verified as accurate (confidence 4) [8ACA999A], AccurateRip returned [EA315B12] (AR v2)
Copy OK

Track 11 Filename E:\New Age\Tya\2003 - Tya - Akwaba (Prudence #398.6682.2)\11. Tya - Naked.wav Pre-gap length 0:00:01.45 Peak level 98.8 %
Extraction speed 1.1 X
Track quality 100.0 %
Test CRC D8AA9904
Copy CRC D8AA9904
Cannot be verified as accurate (confidence 4) [294372DF], AccurateRip returned [F78A1249] (AR v2)
Copy OK

Track 12 Filename E:\New Age\Tya\2003 - Tya - Akwaba (Prudence #398.6682.2)\12. Tya - Daybreak.wav Pre-gap length 0:00:01.45 Peak level 98.8 %
Extraction speed 1.1 X
Track quality 100.0 %
Test CRC 0F5A06EB
Copy CRC 0F5A06EB
Cannot be verified as accurate (confidence 4) [3B3E5C79], AccurateRip returned [A7788DA5] (AR v2)
Copy OK

Track 13 Filename E:\New Age\Tya\2003 - Tya - Akwaba (Prudence #398.6682.2)\13. Tya - Why (Instrumental).wav Pre-gap length 0:00:01.45 Peak level 98.8 %
Extraction speed 1.0 X
Track quality 100.0 %
Copy CRC 6D9B5F7F
Cannot be verified as accurate (confidence 4) [7301DC7E], AccurateRip returned [632FD428] (AR v2)
Copy OK

No tracks could be verified as accurate
You may have a different pressing from the one(s) in the database

No errors occurred

End of status report

==== Log checksum 64D4E5019CFF82F5CEADEA7F987D0FE82F54695835684BF8EA2A44ACC7224795 ====

[CUETools log; Date: 16.07.2015 12:29:12; Version: 2.1.4]
[CTDB TOCID: YEYs.UxlLagdWqbLOsES5Nc77nQ-] found.
Track | CTDB Status
1 | (7/7) Accurately ripped
2 | (7/7) Accurately ripped
3 | (7/7) Accurately ripped
4 | (7/7) Accurately ripped
5 | (7/7) Accurately ripped
6 | (7/7) Accurately ripped
7 | (7/7) Accurately ripped
8 | (7/7) Accurately ripped
9 | (7/7) Accurately ripped
10 | (7/7) Accurately ripped
11 | (7/7) Accurately ripped
12 | (7/7) Accurately ripped
13 | (7/7) Accurately ripped
[AccurateRip ID: 00210a11-014a1c2b-b40fdc0d] found.
Track [ CRC | V2 ] Status
01 [91ca36f4|d58a7c7f] (00+00/10) No match
02 [31b4888e|a43946eb] (00+00/10) No match
03 [097ec9df|312356b4] (00+00/10) No match
04 [89e8af98|a9a3219e] (00+00/10) No match
05 [167b3e6f|01fe6a62] (00+00/10) No match
06 [3b771001|d3331127] (00+00/10) No match
07 [d63250a3|f88753f7] (00+00/10) No match
08 [0c67014e|11df5202] (00+00/10) No match
09 [468b36e6|add9a38e] (00+00/10) No match
10 [c5364960|8aca999a] (00+00/10) No match
11 [81fa0a4e|294372df] (00+00/10) No match
12 [3378d7df|3b3e5c79] (00+00/10) No match
13 [0ce80950|7301dc7e] (00+00/10) No match
Offsetted by -139:
01 [a56c22b0] (02/10) Accurately ripped
02 [6403c781] (02/10) Accurately ripped
03 [60bc84b4] (02/10) Accurately ripped
04 [d5caeb36] (02/10) Accurately ripped
05 [f1d4202d] (02/10) Accurately ripped
06 [800391a3] (02/10) Accurately ripped
07 [850e5073] (02/10) Accurately ripped
08 [cec7bdfa] (02/10) Accurately ripped
09 [7770daf3] (02/10) Accurately ripped
10 [f2276274] (02/10) Accurately ripped
11 [a891d8f9] (02/10) Accurately ripped
12 [23c1b6d0] (02/10) Accurately ripped
13 [63ff6a4d] (02/10) Accurately ripped
Offsetted by -803:
01 [71b5c590] (00/10) No match (V2 was not tested)
02 [40155b59] (00/10) No match (V2 was not tested)
03 [a73da51c] (00/10) No match (V2 was not tested)
04 [ce19baa6] (00/10) No match (V2 was not tested)
05 [8a90f89d] (00/10) No match (V2 was not tested)
06 [4c131c33] (00/10) No match (V2 was not tested)
07 [dac5caf3] (00/10) No match (V2 was not tested)
08 [ec8e7c5a] (00/10) No match (V2 was not tested)
09 [78f69f1b] (00/10) No match (V2 was not tested)
10 a1b2214 (00/10) No match (V2 was not tested)
11 [e9372491] (00/10) No match (V2 was not tested)
12 [43814518] (00/10) No match (V2 was not tested)
13 [20dbcd15] (00/10) No match (V2 was not tested)
Offsetted by -18:
01 [a6bfdf9c] (00/10) No match (V2 was not tested)
02 [0a2d4c90] (00/10) No match (V2 was not tested)
03 [306b280d] (00/10) No match (V2 was not tested)
04 [d609aa6c] (00/10) No match (V2 was not tested)
05 [9db4cc03] (00/10) No match (V2 was not tested)
06 [5a7150ad] (00/10) No match (V2 was not tested)
07 [453e3a83] (00/10) No match (V2 was not tested)
08 [e51cf896] (00/10) No match (V2 was not tested)
09 [263314e4] (00/10) No match (V2 was not tested)
10 [1de8d898] (00/10) No match (V2 was not tested)
11 [485b0d20] (00/10) No match (V2 was not tested)
12 [9892daf5] (00/10) No match (V2 was not tested)
13 [fc7236d5] (00/10) No match (V2 was not tested)

Track Peak [ CRC32 ] [W/O NULL] [ LOG ]
-- 98,8 [7C1D01DE] [10357560]
01 98,8 [05A352E0] [2B0A15C7] CRC32
02 98,8 [661CDAF4] [7D85D9FD] CRC32
03 98,8 [5A35502D] [39DF232A] CRC32
04 98,8 [8D12C93E] [FDEBD9E4] CRC32
05 98,8 [A4E88050] [64FA352A] CRC32
06 98,8 [CED67B11] [C109E19D] CRC32
07 98,8 [00C924AE] [FA3DAE14] CRC32
08 98,8 [4414E95D] [43A523D6] CRC32
09 98,8 10FEC83 [5C108C31] CRC32
10 98,8 [2374F8A8] [5710CE90] CRC32
11 98,8 [D8AA9904] [EA7C7C13] CRC32
12 98,8 [0F5A06EB] 22EF47F CRC32
13 98,8 [6D9B5F7F] [8407897F] CRC32

Tya - 2 Studio Albums (2003-2007)

Tya - Atma (2007)
EAC Rip | FLAC (tracks+.cue+log) - 414 MB | MP3 CBR 320 kbps (LAME 3.93) - 143 MB | Covers - 138 MB
Genre: New Age | RAR 3% Rec. | Label: Prudence (398.6737.2)

Tracklist:
01. Lizard
02. A New Life Begins
03. Yhi - The Sun Goddess
04. Indian Spirit
05. Flower People
06. Indigo
07. Deep Blue
08. Source Of Hope
09. End Of Morning
10. Tongariro Crossing
11. Space Between

Total time: 01:00:45

Exact Audio Copy V1.0 beta 3 from 29. August 2011

EAC extraction logfile from 9. March 2013, 15:22

Tya / Atma

Used drive : PLEXTOR DVDR PX-760A Adapter: 0 ID: 1

Read mode : Secure
Utilize accurate stream : Yes
Defeat audio cache : Yes
Make use of C2 pointers : No

Read offset correction

: 30
Overread into Lead-In and Lead-Out : Yes
Fill up missing offset samples with silence : Yes
Delete leading and trailing silent blocks : No
Null samples used in CRC calculations : Yes
Used interface
: Installed external ASPI interface
Gap handling
: Appended to previous track

Used output format : User Defined Encoder
Selected bitrate : 1024 kBit/s
Quality : High
Add ID3 tag : No
Command line compressor : C:\Program Files (x86)\Exact Audio Copy\Flac\flac.exe
Additional command line options : -8 -V -T "ARTIST=%artist%" -T "TITLE=%title%" -T "ALBUM=%albumtitle%" -T "DATE=%year%" -T "TRACKNUMBER=%tracknr%" -T "GENRE=%genre%" -T "COMMENT=ripped by DrStandBy" %source%

TOC of the extracted CD Track | Start | Length | Start sector | End sector
--1 | 0:00.00 | 4:53.33 | 0 | 22007 2 | 4:53.33 | 6:28.69 | 22008 | 51176 3 | 11:22.27 | 5:13.53 | 51177 | 74704 4 | 16:36.05 | 6:13.09 | 74705 | 102688 5 | 22:49.14 | 4:59.00 | 102689 | 125113 6 | 27:48.14 | 5:18.53 | 125114 | 149016 7 | 33:06.67 | 4:34.53 | 149017 | 169619 8 | 37:41.45 | 4:42.06 | 169620 | 190775 9 | 42:23.51 | 4:58.62 | 190776 | 213187
10 | 47:22.38 | 6:14.02 | 213188 | 241239
11 | 53:36.40 | 7:08.29 | 241240 | 273368

Track 1 Filename E:\New Age\Tya\2007 - Tya - Atma (Prudence #398.6737.2)\01. Tya - Lizard.wav Pre-gap length 0:00:02.00 Peak level 96.6 %
Extraction speed 1.6 X
Track quality 99.9 %
Test CRC C6FBC3A2
Copy CRC C6FBC3A2
Track not present in AccurateRip database
Copy OK

Track 2 Filename E:\New Age\Tya\2007 - Tya - Atma (Prudence #398.6737.2)\02. Tya - A New Life Begins.wav Peak level 96.6 %
Extraction speed 2.3 X
Track quality 100.0 %
Test CRC 3AE5B390
Copy CRC 3AE5B390
Track not present in AccurateRip database
Copy OK

Track 3 Filename E:\New Age\Tya\2007 - Tya - Atma (Prudence #398.6737.2)\03. Tya - Yhi - The Sun Goddess.wav Peak level 96.6 %
Extraction speed 1.7 X
Track quality 99.9 %
Test CRC C22EAA1B
Copy CRC C22EAA1B
Track not present in AccurateRip database
Copy OK

Track 4 Filename E:\New Age\Tya\2007 - Tya - Atma (Prudence #398.6737.2)\04. Tya - Indian Spirit.wav Peak level 91.2 %
Extraction speed 1.8 X
Track quality 99.9 %
Test CRC 30E3323F
Copy CRC 30E3323F
Track not present in AccurateRip database
Copy OK

Track 5 Filename E:\New Age\Tya\2007 - Tya - Atma (Prudence #398.6737.2)\05. Tya - Flower People.wav Peak level 96.6 %
Extraction speed 2.2 X
Track quality 100.0 %
Test CRC 868BBFD4
Copy CRC 868BBFD4
Track not present in AccurateRip database
Copy OK

Track 6 Filename E:\New Age\Tya\2007 - Tya - Atma (Prudence #398.6737.2)\06. Tya - Indigo.wav Peak level 96.6 %
Extraction speed 1.7 X
Track quality 99.9 %
Test CRC C106F3E2
Copy CRC C106F3E2
Track not present in AccurateRip database
Copy OK

Track 7 Filename E:\New Age\Tya\2007 - Tya - Atma (Prudence #398.6737.2)\07. Tya - Deep Blue.wav Peak level 98.8 %
Extraction speed 2.2 X
Track quality 100.0 %
Test CRC CC0D3736
Copy CRC CC0D3736
Track not present in AccurateRip database
Copy OK

Track 8 Filename E:\New Age\Tya\2007 - Tya - Atma (Prudence #398.6737.2)\08. Tya - Source Of Hope.wav Peak level 96.6 %
Extraction speed 2.2 X
Track quality 100.0 %
Test CRC 3900E88F
Copy CRC 3900E88F
Track not present in AccurateRip database
Copy OK

Track 9 Filename E:\New Age\Tya\2007 - Tya - Atma (Prudence #398.6737.2)\09. Tya - End Of Morning.wav Peak level 86.1 %
Extraction speed 2.2 X
Track quality 100.0 %
Test CRC BEFEBFBF
Copy CRC BEFEBFBF
Track not present in AccurateRip database
Copy OK

Track 10 Filename E:\New Age\Tya\2007 - Tya - Atma (Prudence #398.6737.2)\10. Tya - Tongariro Crossing.wav Peak level 96.6 %
Extraction speed 2.2 X
Track quality 100.0 %
Test CRC A279E3EC
Copy CRC A279E3EC
Track not present in AccurateRip database
Copy OK

Track 11 Filename E:\New Age\Tya\2007 - Tya - Atma (Prudence #398.6737.2)\11. Tya - Space Between.wav Peak level 98.8 %
Extraction speed 2.4 X
Track quality 100.0 %
Test CRC 365D6293
Copy CRC 365D6293
Track not present in AccurateRip database
Copy OK

None of the tracks are present in the AccurateRip database

No errors occurred

End of status report

- CUETools DB Plugin V2.1.4

[CTDB TOCID: 8r84LFgFMEqGZa1_m57fYNmuBMU-] disk not present in database
Submit result: 8r84LFgFMEqGZa1_m57fYNmuBMU- has been uploaded

==== Log checksum 74B4696B3224257F78FEBD60243E196412ECF4F0B28EB5DDBC06E1B7A888A3C2 ====

[CUETools log; Date: 16.07.2015 12:29:54; Version: 2.1.4]
[CTDB TOCID: 8r84LFgFMEqGZa1_m57fYNmuBMU-] found.
Track | CTDB Status
1 | (1/1) Accurately ripped
2 | (1/1) Accurately ripped
3 | (1/1) Accurately ripped
4 | (1/1) Accurately ripped
5 | (1/1) Accurately ripped
6 | (1/1) Accurately ripped
7 | (1/1) Accurately ripped
8 | (1/1) Accurately ripped
9 | (1/1) Accurately ripped
10 | (1/1) Accurately ripped
11 | (1/1) Accurately ripped
[AccurateRip ID: 00189c67-00d4c2d4-af0e3c0b] disk not present in database.

Track Peak [ CRC32 ] [W/O NULL] [ LOG ]
-- 98,8 [56364AA1] [C4CDD057]
01 96,6 [C6FBC3A2] [A13F1861] CRC32
02 96,6 [3AE5B390] [574BD749] CRC32
03 96,6 [C22EAA1B] [340B5DAA] CRC32
04 91,2 [30E3323F] [A509E223] CRC32
05 96,6 [868BBFD4] [CDF2DB32] CRC32
06 96,6 [C106F3E2] [336D97E9] CRC32
07 98,8 [CC0D3736] [0C7ABDCB] CRC32
08 96,6 [3900E88F] FA86003 CRC32
09 86,1 EFEBFBF F675558 CRC32
10 96,6 [A279E3EC] [6248FEBF] CRC32
11 98,8 [365D6293] [12CFBA8D] CRC32

Thanks to DrStandBy
DOWNLOAD LINKS
Buy Premium From My Links To Get Resumable Support & Max Speed & To Support Me


Links are Interchangeable - No Password - Single Extraction

Direct Download

Tags: Studio, Albums

Tya - 2 Studio Albums (2003-2007) Download via Hotfile Rapidshare Fileserve Megaupload & FileSonic, Tya - 2 Studio Albums (2003-2007) free torrent downloads included crack, serial, keygen.


Attention!Information

Members of Guest cannot leave comments.