Memphis Slim - Memphis Slim (1961)

Download Now

Memphis Slim - Memphis Slim (1961)

Memphis Slim - Memphis Slim (1961)
EAC | Flac(Image) + Cue + Log & MP3 CBR 320Kbps
1986 | MSA-Chess Records, CHD-9250 | ~ 104 or 72 Mb | Scans(png) -> 70 Mb
Blues / Piano Blues / Early R&B

"A straight CD reissue of a vintage Chess LP, its contents dating back to the early '50s and most tracks originally issued on the Premium logo. Includes an early and very nice reading of "Mother Earth;" also sharp as a tack is "Rockin' the Pad." In an unusual move, Slim is joined by a smooth vocal group, the Vagabonds, for "Really Got the Blues."..."


Tracklist:

01. I Guess I'm A Fool 03:03
02. Rockin' The Pad 02:40
03. Havin' Fun 02:24
04. Marack 02:33
05. Mother Earth 02:42
06. Really Got The Blues 02:39
07. Tia Juana 02:53
08. I'm Crying 03:18
09. Reverend Bounce 02:39
10. Slim's Blues 03:01
11. Blues For My Baby 02:41

Exact Audio Copy V1.0 beta 3 from 29. August 2011

EAC extraction logfile from 21. January 2013, 21:17

Memphis Slim / Memphis Slim

Used drive : HL-DT-STBDDVDRW GBC-H20N Adapter: 1 ID: 0

Read mode : Secure
Utilize accurate stream : Yes
Defeat audio cache : Yes
Make use of C2 pointers : No

Read offset correction

: 667
Overread into Lead-In and Lead-Out : No
Fill up missing offset samples with silence : Yes
Delete leading and trailing silent blocks : No
Null samples used in CRC calculations : Yes
Used interface
: Native Win32 interface for Win NT & 2000

Used output format : User Defined Encoder
Selected bitrate : 1024 kBit/s
Quality : High
Add ID3 tag : No
Command line compressor : C:\Program Files\Exact Audio Copy\wavpack.exe
Additional command line options : -hm %source% %dest%

TOC of the extracted CD Track | Start | Length | Start sector | End sector
--1 | 0:00.32 | 3:03.20 | 32 | 13776 2 | 3:03.52 | 2:40.00 | 13777 | 25776 3 | 5:43.52 | 2:23.55 | 25777 | 36556 4 | 8:07.32 | 2:33.28 | 36557 | 48059 5 | 10:40.60 | 2:41.55 | 48060 | 60189 6 | 13:22.40 | 2:38.40 | 60190 | 72079 7 | 16:01.05 | 2:53.37 | 72080 | 85091 8 | 18:54.42 | 3:17.45 | 85092 | 99911 9 | 22:12.12 | 2:38.55 | 99912 | 111816
10 | 24:50.67 | 3:00.38 | 111817 | 125354
11 | 27:51.30 | 2:41.00 | 125355 | 137429

Range status and errors

Selected range Filename C:\Users\ProgDog\Music\ZALIVKI\BLUES\Memfis Slim\Memphis Slim - Memphis Slim.wav Peak level 96.3 %
Extraction speed 5.2 X
Range quality 100.0 %
Test CRC 2C7D9911
Copy CRC 2C7D9911
Copy OK

No errors occurred


AccurateRip summary

Track 1 not present in database
Track 2 not present in database
Track 3 not present in database
Track 4 not present in database
Track 5 not present in database
Track 6 not present in database
Track 7 not present in database
Track 8 not present in database
Track 9 not present in database
Track 10 not present in database
Track 11 not present in database

None of the tracks are present in the AccurateRip database

End of status report

- CUETools DB Plugin V2.1.3

[CTDB TOCID: c1ZpRCAmsMPwvIirzW.IBeEE6wo-] disk not present in database, Submit result: database access error: The remote name could not be resolved: 'db.cuetools.net'

==== Log checksum 257EE0B30D6AE9CF2A165AB6E098A2EFA7F6E7318235F06C1C08D269F691159D ====

foobar2000 1.2.9 / Dynamic Range Meter 1.1.1
log date: 2015-07-17 15:44:51

Analyzed: Memphis Slim / Memphis Slim

DR Peak RMS Duration Track

DR13 -1.53 dB -17.70 dB 3:03 01-I Guess I'm A Fool
DR12 -2.07 dB -17.49 dB 2:40 02-Rockin' The Pad
DR13 -1.62 dB -16.96 dB 2:24 03-Havin' Fun
DR14 -0.35 dB -18.07 dB 2:33 04-Marack
DR11 -2.14 dB -17.61 dB 2:42 05-Mother Earth
DR12 -3.00 dB -18.20 dB 2:39 06-Really Got The Blues
DR11 -0.33 dB -13.62 dB 2:53 07-Tia Juana
DR12 -2.17 dB -16.86 dB 3:18 08-I'm Crying
DR12 -0.60 dB -14.86 dB 2:39 09-Reverend Bounce
DR13 -2.15 dB -17.57 dB 3:01 10-Slim's Blues
DR13 -6.23 dB -22.10 dB 2:41 11-Blues For My Baby

Number of tracks: 11
Official DR value: DR12

Samplerate: 44100 Hz
Channels: 2
Bits per sample: 16
Bitrate: 446 kbps
Codec: FLAC

[CUETools log; Date: 17.07.2015 15:44:40; Version: 2.1.4]
Pregap length 00:00:32.
[CTDB TOCID: c1ZpRCAmsMPwvIirzW.IBeEE6wo-] disk not present in database.
[AccurateRip ID: 000c73cf-006c153c-9207280b] found.
Track [ CRC | V2 ] Status
01 [aa5701ae|ed7b794a] (0+0/3) No match
02 53a953a|67a12485 (0+0/3) No match
03 [63eb449f|7989a2e5] (0+0/3) No match
04 [51a23263|828382ed] (0+0/3) No match
05 [aef5c00d|651a4e9f] (0+0/3) No match
06 [adf96bb5|269f5d16] (0+0/3) No match
07 [04e13b76|c00bf778] (0+0/3) No match
08 [0b8f7256|e8d2076a] (0+0/3) No match
09 [c72b065c|49ef6018] (0+0/3) No match
10 [1259e396|63c0687b] (0+0/3) No match
11 b3de326|59bb1d57 (0+0/3) No match
Offsetted by 1632:
01 [60fce0b1] (0/3) No match (V2 was not tested)
02 [8c0fafe5] (0/3) No match (V2 was not tested)
03 [5b4ed8b4] (0/3) No match (V2 was not tested)
04 [50953f48] (0/3) No match (V2 was not tested)
05 [a7a24592] (0/3) No match (V2 was not tested)
06 [080c4e21] (0/3) No match (V2 was not tested)
07 [e246db4a] (0/3) No match (V2 was not tested)
08 [f544f32a] (0/3) No match (V2 was not tested)
09 [686f06e9] (0/3) No match (V2 was not tested)
10 [22d8c7f3] (0/3) No match (V2 was not tested)
11 [43fd9b6e] (0/3) No match (V2 was not tested)

Track Peak [ CRC32 ] [W/O NULL] [ LOG ]
-- 96,3 [2C7D9911] [CAE9F290] CRC32
01 83,8 [FFA508F9] [19A844B4]
02 78,7 [9498DABD] [6772A063]
03 83,0 [76437940] 64849C1
04 96,0 [5FD7ABCD] [0A9714E1]
05 78,1 [89977B63] [D2B951D8]
06 70,7 [CD5AF583] [EC0DBEBC]
07 96,3 [90431B34] [E201B8F3]
08 77,9 [6BE77CB0] [A6951E19]
09 93,3 [E53AD249] [599B1C41]
10 78,1 [01EB9C35] [74D80D00]
11 48,8 [0184D0DF] [731A5E26]

Memphis Slim - Memphis Slim (1961)

DOWNLOAD:
Buy Premium From My Links To Get Resumable Support & Max Speed & To Support Me


Links are Interchangeable - No Password

Direct Download

Tags: Memphis, Memphis

Memphis Slim - Memphis Slim (1961) Download via Hotfile Rapidshare Fileserve Megaupload & FileSonic, Memphis Slim - Memphis Slim (1961) free torrent downloads included crack, serial, keygen.


Attention!Information

Members of Guest cannot leave comments.