10cc - Two Classic Albums: '10cc' & 'Sheet Music' (1990) 2LP in 1CD [Remastered By Steve Hoffman]

Download Now

10cc - Two Classic Albums: '10cc' & 'Sheet Music' (1990) 2LP in 1CD [Remastered By Steve Hoffman]

10cc - Two Classic Albums: '10cc' & 'Sheet Music' (1990) 2LP in 1CD [Remastered By Steve Hoffman]
EAC | FLAC | Image (Cue&Log) ~ 483 Mb (incl 5%) | Mp3 (CBR320) ~ 194 Mb (incl 5%) | Scans included
Genre: Classic Rock, Art Rock, Soft Rock | Label: DCC Compact Classics | # DZS-053 | Time: 01:16:51

"10cc's first two albums, recorded under the sponsorship of entrepreneur and one-time pop star Jonathan King, are combined on one disc for this CD reissue. 1973's 10cc shows that from the start, the group had an uncommon command of recording studio technique; the performances are polished, the harmonies superb, and the production flawless and often witty (all the more remarkable from a new band producing themselves, albeit one comprised of music-biz vets). However, the group was still getting up to speed in terms of their songwriting at this point, and while the craft is fine, there isn't a lot of inspiration on hand. Except for the sardonic "Rubber Bullets" and sarcastically sprightly "The Dean and I," the '50s-inspired parodies on side one don't wear well, and most of side two is clever but not terribly distinguished. 1974's Sheet Music was where 10cc truly hit their stride; the album is full of effective barbed humor buffered by the superbly polished production, which leans toward pretension without quite falling into the pool."



Tracklist:

10cc (1973):

01. Rubber Bullets (Long Version) (05:19)
02. Johnny Don't Do It (03:40)
03. Sand In My Face (03:41)
04. Donna (02:57)
05. The Dean And I (03:06)
06. Headline Hustler (03:33)
07. Speed Kills (03:52)
08. The Hospital Song (02:44)
09. Ships Don't Disappear In The Night (Do They?) (03:07)
10. Fresh Air For My Mama (03:12)

Sheet Music (1974):

11. The Wall Street Shuffle (04:06)
12. The Worst Band In The World (02:47)
13. Hotel (04:55)
14. Old Wild Men (03:23)
15. Clockwork Creep (02:43)
16. Silly Love (04:02)
17. Somewhere In Hollywood (06:42)
18. Baron Samedi (03:48)
19. The Sacro-Iliac (02:35)
20. Oh Effendi (02:51)

21. Waterfall (Non-LP Single Release) (03:37)


Exact Audio Copy V1.0 beta 4 from 7. December 2014

EAC extraction logfile from 9. May 2015, 6:40

10cc / Two Classic Albums: ''10cc'' & ''Sheet Music'' (2-on-1)

Used drive : PIONEER BD-RW BDR-S09 Adapter: 1 ID: 0

Read mode : Secure
Utilize accurate stream : Yes
Defeat audio cache : Yes
Make use of C2 pointers : No

Read offset correction

: 667
Overread into Lead-In and Lead-Out : No
Fill up missing offset samples with silence : Yes
Delete leading and trailing silent blocks : No
Null samples used in CRC calculations : Yes
Used interface
: Native Win32 interface for Win NT & 2000

Used output format : User Defined Encoder
Selected bitrate : 1024 kBit/s
Quality : High
Add ID3 tag : No
Command line compressor : C:\Program Files (x86)\Exact Audio Copy\Flac\flac.exe
Additional command line options : -8 -V %source%

TOC of the extracted CD Track | Start | Length | Start sector | End sector
--1 | 0:00.00 | 5:19.30 | 0 | 23954 2 | 5:19.30 | 3:40.00 | 23955 | 40454 3 | 8:59.30 | 3:41.12 | 40455 | 57041 4 | 12:40.42 | 2:57.48 | 57042 | 70364 5 | 15:38.15 | 3:06.50 | 70365 | 84364 6 | 18:44.65 | 3:33.55 | 84365 | 100394 7 | 22:18.45 | 3:52.27 | 100395 | 117821 8 | 26:10.72 | 2:44.60 | 117822 | 130181 9 | 28:55.57 | 3:07.55 | 130182 | 144261
10 | 32:03.37 | 3:12.23 | 144262 | 158684
11 | 35:15.60 | 4:06.07 | 158685 | 177141
12 | 39:21.67 | 2:47.40 | 177142 | 189706
13 | 42:09.32 | 4:55.05 | 189707 | 211836
14 | 47:04.37 | 3:23.28 | 211837 | 227089
15 | 50:27.65 | 2:43.67 | 227090 | 239381
16 | 53:11.57 | 4:02.65 | 239382 | 257596
17 | 57:14.47 | 6:42.18 | 257597 | 287764
18 | 63:56.65 | 3:48.55 | 287765 | 304919
19 | 67:45.45 | 2:35.30 | 304920 | 316574
20 | 70:21.00 | 2:51.70 | 316575 | 329469
21 | 73:12.70 | 3:37.50 | 329470 | 345794

Range status and errors

Selected range Filename E:\Torrent Downloads\10cc - Two Classic Albums- ''10cc'' & ''Sheet Music'' (2-on-1)\10cc - Two Classic Albums- ''10cc'' & ''Sheet Music'' (2-on-1).wav Peak level 100.0 %
Extraction speed 8.2 X
Range quality 100.0 %
Test CRC 167E6F3E
Copy CRC 167E6F3E
Copy OK

No errors occurred


AccurateRip summary

Track 1 accurately ripped (confidence 4) [CDF84613] (AR v2)
Track 2 accurately ripped (confidence 4) [3CD85647] (AR v2)
Track 3 accurately ripped (confidence 4) 6F52DCF (AR v2)
Track 4 accurately ripped (confidence 4) [9A972A4E] (AR v2)
Track 5 accurately ripped (confidence 4) [63158765] (AR v2)
Track 6 accurately ripped (confidence 4) [91D8B2A6] (AR v2)
Track 7 accurately ripped (confidence 4) D38AD83 (AR v2)
Track 8 accurately ripped (confidence 4) [6EFA1CC0] (AR v2)
Track 9 accurately ripped (confidence 4) [3034F4B0] (AR v2)
Track 10 accurately ripped (confidence 4) [DD7C1709] (AR v2)
Track 11 accurately ripped (confidence 4) [37051BA0] (AR v2)
Track 12 accurately ripped (confidence 4) [CDB948B6] (AR v2)
Track 13 accurately ripped (confidence 4) [E86A5E78] (AR v2)
Track 14 accurately ripped (confidence 4) [22D50651] (AR v2)
Track 15 accurately ripped (confidence 4) FC7E5E2 (AR v2)
Track 16 accurately ripped (confidence 4) [3038D2D6] (AR v2)
Track 17 accurately ripped (confidence 4) [C836AA63] (AR v2)
Track 18 accurately ripped (confidence 4) [0257D48C] (AR v2)
Track 19 accurately ripped (confidence 4) [1F961C07] (AR v2)
Track 20 accurately ripped (confidence 4) [2DC9814B] (AR v2)
Track 21 accurately ripped (confidence 4) [F26F4EF6] (AR v2)

All tracks accurately ripped

End of status report

- CUETools DB Plugin V2.1.4

[CTDB TOCID: KPTvIxAmEYx9L76201MTibHO3EM-] found
Submit result: KPTvIxAmEYx9L76201MTibHO3EM- has been submitted
Track | CTDB Status
1 | (5/5) Accurately ripped
2 | (5/5) Accurately ripped
3 | (5/5) Accurately ripped
4 | (5/5) Accurately ripped
5 | (5/5) Accurately ripped
6 | (5/5) Accurately ripped
7 | (5/5) Accurately ripped
8 | (5/5) Accurately ripped
9 | (5/5) Accurately ripped
10 | (5/5) Accurately ripped
11 | (4/5) Accurately ripped
12 | (5/5) Accurately ripped
13 | (5/5) Accurately ripped
14 | (5/5) Accurately ripped
15 | (5/5) Accurately ripped
16 | (5/5) Accurately ripped
17 | (5/5) Accurately ripped
18 | (5/5) Accurately ripped
19 | (4/5) Accurately ripped, or (1/5) differs in 338 samples @00:46:54-00:46:55
20 | (5/5) Accurately ripped
21 | (1/5) Accurately ripped, or (1/5) differs in 837 samples @02:21:37-02:21:38
If you are sure that your rip contains errors, you can use CUETools to repair it.

==== Log checksum 1FE67A74FB05A70829A460A14E9E45E1BF70A596B43105969D3929CB1AAE10EA ====

foobar2000 1.2 / Dynamic Range Meter 1.1.1
log date: 2015-07-18 19:44:04

Analyzed: 10cc / Two Classic Albums: ''10cc'' & ''Sheet Music'' (2-on-1)

DR Peak RMS Duration Track

DR14 -0.83 dB -17.83 dB 5:19 01-Rubber Bullets (Long Version)
DR13 -1.95 dB -17.63 dB 3:40 02-Johnny Don't Do It
DR14 -3.54 dB -19.64 dB 3:41 03-Sand In My Face
DR13 -1.32 dB -17.42 dB 2:58 04-Donna
DR12 -1.17 dB -16.28 dB 3:07 05-The Dean And I
DR12 -0.66 dB -14.53 dB 3:34 06-Headline Hustler
DR12 -1.61 dB -16.99 dB 3:52 07-Speed Kills
DR13 -1.02 dB -16.99 dB 2:45 08-The Hospital Song
DR13 -1.93 dB -17.35 dB 3:08 09-Ships Don't Disappear In The Night (Do They?)
DR12 -1.79 dB -18.10 dB 3:12 10-Fresh Air For My Mama
DR12 0.00 dB -15.16 dB 4:06 11-The Wall Street Shuffle
DR14 -0.73 dB -18.01 dB 2:48 12-The Worst Band In The World
DR12 0.00 dB -15.99 dB 4:55 13-Hotel
DR12 -0.70 dB -18.53 dB 3:23 14-Old Wild Men
DR11 0.00 dB -14.00 dB 2:44 15-Clockwork Creep
DR12 -0.48 dB -15.06 dB 4:03 16-Silly Love
DR14 -0.67 dB -18.87 dB 6:42 17-Somewhere In Hollywood
DR11 -1.14 dB -15.36 dB 3:49 18-Baron Samedi
DR12 -5.10 dB -19.21 dB 2:35 19-The Sacro-Iliac
DR14 -1.47 dB -17.42 dB 2:52 20-Oh Effendi
DR12 -0.98 dB -16.32 dB 3:38 21-Waterfall (Non-LP Single Release)

Number of tracks: 21
Official DR value: DR13

Samplerate: 44100 Hz
Channels: 2
Bits per sample: 16
Bitrate: 822 kbps
Codec: FLAC

10cc - Two Classic Albums: '10cc' & 'Sheet Music' (1990) 2LP in 1CD [Remastered By Steve Hoffman]

10cc - Two Classic Albums: '10cc' & 'Sheet Music' (1990) 2LP in 1CD [Remastered By Steve Hoffman]

All thanks to original releaser - fisherman63
Password: designol

Download:
Buy Premium To Support Me & Get Resumable Support & Max Speed


Links are Interchangeable - No Password

Direct Download

Tags: Classic, Albums, Remastered, Hoffman

10cc - Two Classic Albums: '10cc' & 'Sheet Music' (1990) 2LP in 1CD [Remastered By Steve Hoffman] Download via Hotfile Rapidshare Fileserve Megaupload & FileSonic, 10cc - Two Classic Albums: '10cc' & 'Sheet Music' (1990) 2LP in 1CD [Remastered By Steve Hoffman] free torrent downloads included crack, serial, keygen.


Attention!Information

Members of Guest cannot leave comments.