Black Box - Dreamland (1990) [1996, Reissue, Japan, BMG BVCP-7448]

Download Now

Black Box - Dreamland (1990) [1996, Reissue, Japan, BMG BVCP-7448]

Black Box - Dreamland (1990/1996)
EAC Rip | FLAC (Img) + Cue + Log ~ 279 Mb | MP3 CBR320 ~ 102 Mb
Scans: JPG, 600 dpi ~ 96 Mb or Tif, 600 dpi ~ 547 Mb | RAR 5% Recovery
Eurodance, Euro-House | BMG Victor Inc. #BVCP-7448

"Dreamland is the debut studio album of Italo house band Black Box. It was released in May 1990 on RCA Records, and was preceded in 1989 by the international hit single, "Ride On Time". The album was certified gold in both the US and the UK. Conventional wisdom has it that disco died with the 1970s when in fact, it has remained a sometimes dynamic, sometimes bloodless idiom in the '80s and '90s. Unquestionably, one of the finest examples of '90s disco (or "dance music") is Black Box's Dreamland -- which reminds one that although glossy production and danceability can be assets, gutsy, heartfelt vocals make the best disco stand out..."

Official Website | Wiki | Discogs | All Music
***************

Black Box - Dreamland (1990) [1996, Reissue, Japan, BMG BVCP-7448]

Track List:

01. Everbody Everbody [05:25]
02. I Don't Know Anybody Else [04:37]
03. Open Your Eyes [05:22]
04. Fantasy [05:17]
05. Dreamland [02:05]
06. Ride On Time [04:38]
07. Hold On [05:39]
08. Ghost Box [03:58]
09. Strike It Up [05:16]

Exact Audio Copy V1.0 beta 3 from 29. August 2011

Отчёт EAC об извлечении, выполненном 9. октября 2012, 4:03

Black Box / Dreamland

Дисковод: PLEXTOR CD-R PREMIUM2 Adapter: 0 ID: 0

Режим чтения : Достоверность
Использование точного потока : Да
Отключение кэша аудио : Да
Использование указателей C2 : Нет

Коррекция смещения при чтении : 30
Способность читать области Lead-in и Lead-out : Нет
Заполнение пропущенных сэмплов тишиной : Да
Удаление блоков с тишиной в начале и конце : Нет
При вычислениях CRC использовались нулевые сэмплы : Да
Интерфейс : Встроенный Win32-интерфейс для Win NT/2000

Выходной формат : Внутренние WAV-операции
Формат сэмплов : 44.100 Гц; 16 бит; стерео

TOC извлечённого CD Трек | Старт | Длительность | Начальный сектор | Конечный сектор

1 | 0:00.37 | 5:24.23 | 37 | 24359
2 | 5:24.60 | 4:36.40 | 24360 | 45099
3 | 10:01.25 | 5:22.00 | 45100 | 69249
4 | 15:23.25 | 5:16.42 | 69250 | 92991
5 | 20:39.67 | 2:04.20 | 92992 | 102311
6 | 22:44.12 | 4:37.05 | 102312 | 123091
7 | 27:21.17 | 5:38.35 | 123092 | 148476
8 | 32:59.52 | 3:57.58 | 148477 | 166309
9 | 36:57.35 | 5:15.30 | 166310 | 189964

Характеристики диапазона извлечения и сообщения об ошибках

Выбранный диапазон Имя файла E:\Black Box - Dreamland (BMG BVCP-7448)\Black Box - Dreamland.wav Пиковый уровень 99.0 %
Скорость извлечения 5.6 X
Качество диапазона 100.0 %
CRC теста 4DD16BCA
CRC копии 4DD16BCA
Копирование... OK

Ошибок не произошло


AccurateRip: сводка

Трек 1 : извлечено точно (доверие 1) 9DFC4F2 (AR v1)
Трек 2 : извлечено точно (доверие 1) [D841001D] (AR v1)
Трек 3 : извлечено точно (доверие 1) [7D4EEDCF] (AR v1)
Трек 4 : извлечено точно (доверие 1) [A4A966B7] (AR v1)
Трек 5 : извлечено точно (доверие 1) [4B9C9A20] (AR v1)
Трек 6 : извлечено точно (доверие 1) [64F7A5D3] (AR v1)
Трек 7 : извлечено точно (доверие 1) [7F303E7E] (AR v1)
Трек 8 : извлечено точно (доверие 1) [C0A0A498] (AR v1)
Трек 9 : извлечено точно (доверие 1) [8D11B2EB] (AR v1)

Все треки извлечены точно

Конец отчёта

foobar2000 1.2.6 / Dynamic Range Meter 1.1.1
log date: 2015-07-17 02:25:23

Analyzed: Black Box / Dreamland

DR Peak RMS Duration Track

DR12 -1.03 dB -15.20 dB 5:24 01-Everbody Everbody
DR13 -0.55 dB -16.48 dB 4:37 02-I Don't Know Anybody Else
DR13 -2.93 dB -17.44 dB 5:22 03-Open Your Eyes
DR13 -1.86 dB -16.69 dB 5:17 04-Fantasy
DR12 -6.74 dB -22.37 dB 2:04 05-Dreamland
DR13 -2.17 dB -17.06 dB 4:37 06-Ride On Time
DR13 -0.70 dB -16.76 dB 5:38 07-Hold On
DR15 -0.08 dB -19.02 dB 3:58 08-Ghost Box
DR13 -2.04 dB -16.45 dB 5:15 09-Strike It Up

Number of tracks: 9
Official DR value: DR13

Samplerate: 44100 Hz
Channels: 2
Bits per sample: 16
Bitrate: 880 kbps
Codec: FLAC

[CUETools log; Date: 17.07.2015 2:24:55; Version: 2.1.5]
Pregap length 00:00:37.
[CTDB TOCID: HiSbRBCfN7g8OPZaCGdPy9EO.Qg-] found.
Track | CTDB Status
1 | (3/3) Accurately ripped
2 | (3/3) Accurately ripped
3 | (3/3) Accurately ripped
4 | (3/3) Accurately ripped
5 | (3/3) Accurately ripped
6 | (1/3) Accurately ripped
7 | (3/3) Accurately ripped
8 | (3/3) Accurately ripped
9 | (3/3) Accurately ripped
[AccurateRip ID: 000ead67-006a983d-6d09e409] found.
Track [ CRC | V2 ] Status
01 9dfc4f2|0bb27c80 (2+0/2) Accurately ripped
02 [d841001d|e68ff731] (2+0/2) Accurately ripped
03 [7d4eedcf|ec93b184] (2+0/2) Accurately ripped
04 [a4a966b7|8f1956ae] (2+0/2) Accurately ripped
05 [4b9c9a20|e3ecfad4] (2+0/2) Accurately ripped
06 [64f7a5d3|ebfdb79f] (2+0/2) Accurately ripped
07 [7f303e7e|8f9453d8] (2+0/2) Accurately ripped
08 [c0a0a498|5a9c8a96] (2+0/2) Accurately ripped
09 [8d11b2eb|873f0d34] (2+0/2) Accurately ripped

Track Peak [ CRC32 ] [W/O NULL] [ LOG ]
-- 99,0 [4DD16BCA] [D7A0CF5D] CRC32
01 88,8 [87DA2C98] 2581F14
02 93,8 [D48AB08D] AB41918
03 71,3 [1FED5487] [CBEEE535]
04 80,6 [34E24E9A] [35DB28E1]
05 46,0 [7A20F389] [7C1B70B9]
06 77,8 [754817EB] 11CB5A2
07 92,2 [840E4847] [E909C6CF]
08 99,0 [1226CBDE] 76BC56D
09 79,0 [EFD5411C] [F313B538]

Black Box - Dreamland (1990) [1996, Reissue, Japan, BMG BVCP-7448]

All thanks go to Gretzky Wayne


DOWNLOAD:
Buy Premium From My Links To Get Resumable Support & Max Speed & To Support Me


Links are Interchangeable - No Password

Direct Download

Tags: Dreamland, Reissue

Black Box - Dreamland (1990) [1996, Reissue, Japan, BMG BVCP-7448] Download via Hotfile Rapidshare Fileserve Megaupload & FileSonic, Black Box - Dreamland (1990) [1996, Reissue, Japan, BMG BVCP-7448] free torrent downloads included crack, serial, keygen.


Attention!Information

Members of Guest cannot leave comments.