Elena Ruehr - O'Keeffe Images (2014)

Download Now

Elena Ruehr - O'Keeffe Images (2014)

Elena Ruehr - O'Keeffe Images (2014)
Contemporary Classical | BMOP/sound 1039 | 2014 | 69:22 | EAC (FLAC, cue, log) | Scans | Various File Hosts | 347 MB
Jennifer Kloetzel, cello, Boston Modern Orchestra Project, Gil Rose, conductor

"
The image of a deer skull superimposed over a rocky landscape is at once serene and startling, and Ruehr's (b. 1963) music reflects both. Its broad orchestral shades, sweeping string writing, and arching motives, put across with clarity by solo trumpet, brings to mind classic film music and the rural Americana of Copland's popular scores. Yet these elements grind against one another for patches of rough dissonance. The music also seems to spin in many directions at once. Brass and woodwind calls dart out from the music's bubbling rhythm, while doubled octaves in basses and piano ground the music to the earth.
"

bostonclassicalreview.com

"
The four orchestral works of composer Elena Ruehr that are assembled on this alluring disc by the Boston Modern Orchestra Project are striking for their combination of rhapsodic, almost sinful lushness and a robust force that keeps the effect from cloying. Her signature orchestrational move is to pull you in with the strings and then let the brass punch you in the gut, and it works every time - even when you know it's coming. Even the overall course of the disc works that way.
"

SF Gate

"
Cloud Atlas is a cello concerto (2011) that's inspired by David Mitchell's novel. Six characters narrate stories that move through different time periods into the future. Ruehr focuses on the sixth character-the "goddess" Sonmi-451, and has her moving through all six stories. The music is soulful and dreamy, and Jennifer Kloetzel's rich cello captures the essence of this impressionistic work.
"

audaud.com

I have had this disc for a while and I am glad I finally opened it. There is an appealing minimalist aspect to some of her orchestral works underlined by rythmic patterns (Shimmer and Ladder to the Moon comes to mind) while others are notable for lush melodies. I have one more disc of her music (vocal works), which I might share as well.

Track List:

01. Shimmer [0:11:33.17]
02. Vocalissimus [0:07:50.04]
03. Cloud Atlas [0:16:55.64]
04. O'Keeffe Images: Summer Days [0:11:44.47]
05. O'Keeffe Images: Sky Above Clouds [0:09:30.65]
06. O'Keeffe Images: Ladder to the Moon [0:11:45.17]

Exact Audio Copy V1.0 beta 4 from 7. December 2014

EAC extraction logfile from 29. June 2015, 12:57

Elena Ruehr / O'Keeffe Images

Used drive : hp DVDRAM GT80N Adapter: 1 ID: 0

Read mode : Secure
Utilize accurate stream : Yes
Defeat audio cache : Yes
Make use of C2 pointers : No

Read offset correction

: 102
Overread into Lead-In and Lead-Out : No
Fill up missing offset samples with silence : Yes
Delete leading and trailing silent blocks : No
Null samples used in CRC calculations : Yes
Used interface
: Native Win32 interface for Win NT & 2000

Used output format : User Defined Encoder
Selected bitrate : 128 kBit/s
Quality : High
Add ID3 tag : No
Command line compressor : C:\Program Files (x86)\Exact Audio Copy\Flac\flac.exe
Additional command line options : -V -8 -T "Date=%year%" -T "Genre=%genre%" %source%

TOC of the extracted CD Track | Start | Length | Start sector | End sector
--1 | 0:00.00 | 11:33.17 | 0 | 51991 2 | 11:33.17 | 7:50.04 | 51992 | 87245 3 | 19:23.21 | 16:55.64 | 87246 | 163434 4 | 36:19.10 | 11:44.47 | 163435 | 216281 5 | 48:03.57 | 9:30.65 | 216282 | 259096 6 | 57:34.47 | 11:45.17 | 259097 | 311988

Range status and errors

Selected range Filename C:\Files for Upload\Elena Ruehr - O'Keeffe Images (2014)\Elena Ruehr - O'Keeffe Images.wav Peak level 96.1 %
Extraction speed 3.2 X
Range quality 100.0 %
Test CRC 14BBAC71
Copy CRC 14BBAC71
Copy OK

No errors occurred


AccurateRip summary

Track 1 not present in database
Track 2 not present in database
Track 3 not present in database
Track 4 not present in database
Track 5 not present in database
Track 6 not present in database

None of the tracks are present in the AccurateRip database

End of status report

==== Log checksum 1FD6436E5D797F05C084A6C038DBE79328C9CC724CD5FBE6E2489702A6D54CB9 ====

Of relaterd interest:
www.elenaruehr.org

3% recovery record is included.

More contemporary American and European music is available at my .


DOWNLOAD
(Premium Recommended)


All above links are interchangable. No password

Direct Download

Tags: Keeffe, Images

Elena Ruehr - O'Keeffe Images (2014) Download via Hotfile Rapidshare Fileserve Megaupload & FileSonic, Elena Ruehr - O'Keeffe Images (2014) free torrent downloads included crack, serial, keygen.


Attention!Information

Members of Guest cannot leave comments.