David Munyon - Slim Possibilities (1996, Stockfisch # SFR 357.6012.2)

Download Now


David Munyon - Slim Possibilities (1996, Stockfisch # SFR 357.6012.2)
David Munyon - Slim Possibilities
EAC+LOG+CUE | FLAC (tracks): 323 MB | NO Artwork | 5% Recovery Info
Label/Cat#: Stockfisch Records # SFR 357.6012.2 | Country/Year: Germany 1996
Genre: Folk, Acoustic, Blues | Style: Singer/Songwriter

""Günter Pauler created a breathtaking backing sound that the listener will be speechless about. Pauler had a little help of musician like, Chris Jones: Guitars, Harmony vocal, Hans-Jorg Maucksch: Electric Bass, Frank Fiedler: Acoustic bass, Beo Brockhausen: Hurdy-Gurdy, Jew's-harp, John Hickman: Banjo, Byron Berline: Fiddle, Steve Baker: Harp and Hrolfur Vagnsson: Accordion. Already on the first track, Mississippi Rain, you will hear the sound of the typical Munyon fret-less bass guitar and an acoustic guitar solo of the master himself. The power on this album you will find in, Slim Possibilities.""




David Munyon - Slim Possibilities (1996, Stockfisch # SFR 357.6012.2)



Exact Audio Copy V0.99 prebeta 5 from 4. May 2009

EAC extraction logfile from 29. May 2010, 9:00

David Munyon / Slim Possibilities

Used drive : ASUS DRW-2014S1 Adapter: 0 ID: 1

Read mode : Secure
Utilize accurate stream : Yes
Defeat audio cache : Yes
Make use of C2 pointers : No

Read offset correction

: 6
Overread into Lead-In and Lead-Out : No
Fill up missing offset samples with silence : Yes
Delete leading and trailing silent blocks : No
Null samples used in CRC calculations : Yes
Used interface
: Installed external ASPI interface
Gap handling
: Appended to previous track

Used output format : User Defined Encoder
Selected bitrate : 320 kBit/s
Quality : High
Add ID3 tag : No
Command line compressor : C:\Program Files\Exact Audio Copy\flac.exe
Additional command line options : -8 -V -T "artist=%a" -T "title=%t" -T "album=%g" -T "date=%y" -T "tracknumber=%n" -T "genre=%m" -T "comment=High Quality, EAC secure, Lossless flac " %s

TOC of the extracted CD Track | Start | Length | Start sector | End sector
--1 | 0:00.00 | 5:11.12 | 0 | 23336 2 | 5:11.12 | 6:08.58 | 23337 | 50994 3 | 11:19.70 | 5:47.05 | 50995 | 77024 4 | 17:07.00 | 5:45.40 | 77025 | 102939 5 | 22:52.40 | 5:21.30 | 102940 | 127044 6 | 28:13.70 | 3:43.37 | 127045 | 143806 7 | 31:57.32 | 5:05.08 | 143807 | 166689 8 | 37:02.40 | 5:21.69 | 166690 | 190833 9 | 42:24.34 | 5:31.63 | 190834 | 215721
10 | 47:56.22 | 5:05.30 | 215722 | 238626
11 | 53:01.52 | 3:36.28 | 238627 | 254854
12 | 56:38.05 | 5:25.62 | 254855 | 279291

Track 1 Filename F:\whatcd\a\David Munyon - - Slim Possibilities\01 - Missisippi Rain.wav Pre-gap length 0:00:02.00 Peak level 98.2 %
Track quality 99.9 %
Test CRC 7A826B9C
Copy CRC 7A826B9C
Accurately ripped (confidence 10) [397CFA40]
Copy OK

Track 2 Filename F:\whatcd\a\David Munyon - - Slim Possibilities\02 - This Man Flies To Africa.wav Pre-gap length 0:00:02.86 Peak level 97.7 %
Track quality 100.0 %
Test CRC 797F7C6F
Copy CRC 797F7C6F
Accurately ripped (confidence 9) [C72FFA11]
Copy OK

Track 3 Filename F:\whatcd\a\David Munyon - - Slim Possibilities\03 - Severe Austerities.wav Pre-gap length 0:00:02.77 Peak level 93.1 %
Track quality 100.0 %
Test CRC 5518D5DD
Copy CRC 5518D5DD
Accurately ripped (confidence 9) [5C6250FD]
Copy OK

Track 4 Filename F:\whatcd\a\David Munyon - - Slim Possibilities\04 - Delphia's Rhyme.wav Pre-gap length 0:00:01.84 Peak level 97.7 %
Track quality 100.0 %
Test CRC D186F3C8
Copy CRC D186F3C8
Accurately ripped (confidence 9) [A1E8212E]
Copy OK

Track 5 Filename F:\whatcd\a\David Munyon - - Slim Possibilities\05 - St. Charlie's Phone Call.wav Pre-gap length 0:00:02.37 Peak level 97.0 %
Track quality 99.9 %
Test CRC B14CF12C
Copy CRC B14CF12C
Accurately ripped (confidence 9) [FA8009BA]
Copy OK

Track 6 Filename F:\whatcd\a\David Munyon - - Slim Possibilities\06 - Slim Possibility.wav Pre-gap length 0:00:02.64 Peak level 98.2 %
Track quality 99.9 %
Test CRC 9B18D6DF
Copy CRC 9B18D6DF
Accurately ripped (confidence 9) [D1163D47]
Copy OK

Track 7 Filename F:\whatcd\a\David Munyon - - Slim Possibilities\07 - Iron and Wooden Road.wav Pre-gap length 0:00:02.60 Peak level 97.8 %
Track quality 100.0 %
Test CRC 2E8853F7
Copy CRC 2E8853F7
Accurately ripped (confidence 9) [70DA0BA3]
Copy OK

Track 8 Filename F:\whatcd\a\David Munyon - - Slim Possibilities\08 - N.Y.C.wav Pre-gap length 0:00:02.86 Peak level 97.8 %
Track quality 100.0 %
Test CRC 77D44E5C
Copy CRC 77D44E5C
Accurately ripped (confidence 9) 006C67C
Copy OK

Track 9 Filename F:\whatcd\a\David Munyon - - Slim Possibilities\09 - Is It Really You.wav Pre-gap length 0:00:02.69 Peak level 98.0 %
Track quality 100.0 %
Test CRC 0B7A76A3
Copy CRC 0B7A76A3
Accurately ripped (confidence 9) [E3F60032]
Copy OK

Track 10 Filename F:\whatcd\a\David Munyon - - Slim Possibilities\10 - Somewhat Delayed Deja-Vu.wav Pre-gap length 0:00:02.76 Peak level 92.8 %
Track quality 100.0 %
Test CRC 71E13649
Copy CRC 71E13649
Accurately ripped (confidence 9) [8655E581]
Copy OK

Track 11 Filename F:\whatcd\a\David Munyon - - Slim Possibilities\11 - Probably Just A Broken Heart.wav Pre-gap length 0:00:01.86 Peak level 97.9 %
Track quality 100.0 %
Test CRC DC42F7CB
Copy CRC DC42F7CB
Accurately ripped (confidence 9) 35BB675
Copy OK

Track 12 Filename F:\whatcd\a\David Munyon - - Slim Possibilities\12 - Bakersfield.wav Pre-gap length 0:00:02.77 Peak level 92.3 %
Track quality 100.0 %
Test CRC 333935C3
Copy CRC 333935C3
Accurately ripped (confidence 9) [8F91FFA7]
Copy OK

All tracks accurately ripped

No errors occurred

End of status report

AUDIOCHECKER v2.0 beta (build 457) - by Dester - [email protected]
~~~~~~~~~~~~~~~~~~~~~~~~~~~~~~~~~~
-=== DO NOT EDIT THIS FILE! ===-

Path: ...\David Munyon - Slim Possibilities

01 -=- 01 - Missisippi Rain.flac -=- CDDA (100%)
02 -=- 02 - This Man Flies To Africa.flac -=- CDDA (100%)
03 -=- 03 - Severe Austerities.flac -=- CDDA (100%)
04 -=- 04 - Delphia's Rhyme.flac -=- CDDA (100%)
05 -=- 05 - St. Charlie's Phone Call.flac -=- CDDA (100%)
06 -=- 06 - Slim Possibility.flac -=- CDDA (100%)
07 -=- 07 - Iron and Wooden Road.flac -=- CDDA (100%)
08 -=- 08 - N.Y.C.flac -=- CDDA (100%)
09 -=- 09 - Is It Really You.flac -=- CDDA (100%)
10 -=- 10 - Somewhat Delayed Deja-Vu.flac -=- CDDA (100%)
11 -=- 11 - Probably Just A Broken Heart.flac -=- CDDA (99%)
12 -=- 12 - Bakersfield.flac -=- CDDA (99%)

Summary 99.83% CDDA

60838740

foobar2000 1.1.14a / Dynamic Range Meter 1.1.1
log date: 2015-06-09 20:56:30

Analyzed: David Munyon / Slim Possibilities

DR Peak RMS Duration Track

DR9 -0.15 dB -11.48 dB 5:11 01-Missisippi Rain
DR10 -0.20 dB -12.38 dB 6:09 02-This Man Flies To Africa
DR10 -0.62 dB -13.58 dB 5:47 03-Severe Austerities
DR10 -0.19 dB -12.09 dB 5:46 04-Delphia's Rhyme
DR12 -0.26 dB -16.16 dB 5:21 05-St. Charlie's Phone Call
DR11 -0.15 dB -12.80 dB 3:43 06-Slim Possibility
DR10 -0.19 dB -12.25 dB 5:05 07-Iron and Wooden Road
DR11 -0.19 dB -13.77 dB 5:22 08-N.Y.C
DR9 -0.17 dB -10.56 dB 5:32 09-Is It Really You
DR10 -0.64 dB -13.56 dB 5:05 10-Somewhat Delayed Deja-Vu
DR11 -0.18 dB -13.28 dB 3:36 11-Probably Just A Broken Heart
DR11 -0.69 dB -14.02 dB 5:26 12-Bakersfield

Number of tracks: 12
Official DR value: DR10

Samplerate: 44100 Hz
Channels: 2
Bits per sample: 16
Bitrate: 694 kbps
Codec: FLAC

CD Info:

David Munyon - Slim Possibilities

Label: Stockfisch Records
Catalog#: SFR 357.6012.2
Format: CD, Album
Country: Germany
Released: 1996
Genre: Folk, Acoustic
Style: Singer/Songwriter

Tracklist:

01 - Missisippi Rain
02 - This Man Flies To Africa
03 - Severe Austerities
04 - Delphia's Rhyme
05 - St. Charlie's Phone Call
06 - Slim Possibility
07 - Iron and Wooden Road
08 - N.Y.C
09 - Is It Really You
10 - Somewhat Delayed Deja-Vu
11 - Probably Just A Broken Heart
12 - Bakersfield

""Gunter Pauler created a breathtaking backing sound that the listener will be speechless about. Pauler had a little help of musician like, Chris Jones: Guitars, Harmony vocal, Hans-Jorg Maucksch: Electric Bass, Frank Fiedler: Acoustic bass, Beo Brockhausen: Hurdy-Gurdy, Jew's-harp, John Hickman: Banjo, Byron Berline: Fiddle, Steve Baker: Harp and Hrolfur Vagnsson: Accordion. Already on the first track, Mississippi Rain, you will hear the sound of the typical Munyon fret-less bass guitar and an acoustic guitar solo of the master himself. The power on this album you will find in, Slim Possibilities." - www.realrootscafe.com

This CD was released almost ten years ago and it has been part of my collection for the last seven years. It may be harder or easier to review a recording to which you have listened countless times, depending on your view. This is the kind of CD that makes you want to explore more the richness of folk music in America. If someone as obscure as David Munyon can give hundreds of hours of listening pleasures then there must be a lot to look for in the backstreets and corners of popular music.

The best singer songwriters, and Munyon is one of them, create a personal language. They create it from their personal lives, their voices, their songwriting skills and their presence and style. Maybe few sing as well as Frank Sinatra, but the cominations of their skills make them unique. Once you have heard one of Munyon's CDs you will recognize his music.

Munyon's music is rooted in the American prairie and the spiritual-religious and the mythology of rock 'n' roll. He is a hippy, after being a hippy stopped being hip. His music is very acoustic and pleasant, and all his CDs have been melodic acoustic music, except part of the songs on Code Name: Jumper where he is more of a rocker.

Slim Possibilties is the first CD he released for the German small audiophile label, Stockfish, after 4 CDs released by another German label, Glitterhouse. It's hard to believe but there isn't even one actual U.S. release of Munyon's songs. His music has created a small and loyal fan base in Europe. These fans have been the reason he has been able to release ten CDs in the last fifteen years. Sales may not be very big but we are keeping Munyon, or at lease the record labels that believe in him, in business.

Take the time to find Munyon CDs, and take the time to read him and listen. Sooner or later most of his recordings, including this one, will be considered classics. ~acousticmusic.com"


Thanks to Вата, motormuijs & funny_horse!

Stockfisch related:
Download links:
(Buy premium account via my links to have best speed and resumable ability)


Interchangeable links - No Pass

Direct Download

Tags: Munyon, Possibilities, Stockfisch

David Munyon - Slim Possibilities (1996, Stockfisch # SFR 357.6012.2) Download via Hotfile Rapidshare Fileserve Megaupload & FileSonic, David Munyon - Slim Possibilities (1996, Stockfisch # SFR 357.6012.2) free torrent downloads included crack, serial, keygen.


Attention!Information

Members of Guest cannot leave comments.