Donizetti: Lucrezia Borgia (Pierre-Michel LeConte) [2006]

Download Now

Donizetti: Lucrezia Borgia (Pierre-Michel LeConte) [2006]


Donizetti: Lucrezia Borgia (Pierre-Michel LeConte) [2006]
EAC Rip | FLAC, IMG+CUE, LOG | Scans | 714.57 MB
Classical | Label: Gala | Catalog Number: 763

" Lucrezia Borgia is a melodramma, or opera, in a prologue and two acts by Gaetano Donizetti. Felice Romani wrote the Italian libretto after the play by Victor Hugo, in its turn after the legend of Lucrezia Borgia. Lucrezia Borgia was first performed on 26 December 1833 at La Scala, Milan with Lelande and Pedrazzi. While not performed as regularly as Donizetti's more popular operas, Lucrezia's aria "Com'รจ bello", Orsino's Brindisi "Il segreto per esser felice", the tenor's "Di pescator ignobile", and the bass aria "Vieni, la mia vendetta!" are all very effective and famous melodic moments from the opera and have been performed and recorded frequently.
(wikipedia) "

Performer:
Donna Lucrezia Borgia, Duchessa di Ferrara - Vasso Papantoniou
Don Alfonso, Duca di Ferrara - Jose van Dam
Gennaro - Jose Carreras
Maffio Orsini - Cora Canne-Meijer
Rustighello - Jean Mollien
Astolfo - Raymond Steffner
Jeppo Liverotto - Gerard Friedmann
Don Apostolo Gazella - Bernard Demigny
Ascanio Petrucci - Gilbert Caliero
Oloferno Vitellozzo - Bernard Plantey
Gubetta - Claude Genty
Orchestre Lyrique et Choeur l'ORTF
Conductor - Pierre-Michel LeConte
Paris, July 16, 1972

Bonus tracks: Verdi - Il Corsaro
Corrado, Capitano dei corsair - Giorgio Castellato-Lamberti
Medora, Giovane amante di Corrado - Vasso Papantoniou
Orchestra and Chorus of the Frankfurter Opera
Conductor - Jesus Lopez Cobos
Frankfurt, Oktober 10, 1971

Tracklisting:
CD1
01. Prologo. Bella Venezia! (Gazella, Petrucci, Orsini...)
02. Nella fatal di Rimini (Orsini, Liverotto, Vitellozzo...)
03. Senti. La danza invitaci (Coro, Orsini, Liverotto, Vitellozzo...)
04. Tranquillo ei posa (Lucrezia, Gubetta)
05. Com'e bello! (Lucrezia, Alfonso, Rustighello)
06. Ciel!... Che veggio? (Lucrezia, Gennaro)
07. Di pescatore ignobile (Gennaro, Lucrezia)
08. Gente appressa - io ti lascio (Lucrezia, Gennaro, Orsini...)
09. Maffio Orsini, signora, son io (Orsini, Vitellozzo, Liverotto...)
10. Atto I. Nel veneto corteggio (Alfonso, Rustighello, Voices)
11. Viva! Evviva! Viva! Viva! (Voices, Alfonso, Rustighello)
12. Qualunque sia l'evento (Alfonso, Rustighello)
13. Addio, Gennaro (Orsini, Liverotto, Vitellozzo...)
14. Qui che fai? (Rustighello, Astolfo, Coro)
15. Tutto eseguisti? (Alfonso, Rustighello, Servant)
16. Cosi turbata? (Alfonso, Lucrezia, Gennaro)
17. Soli noi siamo. Che chiedete? (Alfonso, Lucrezia)
18. E si avverso a Gennaro (Lucrezia, Alfonso)
19. Oh! A te bada, a te stesso pon mente (Lucrezia, Alfonso)

CD2
01. Traffitto tosto ei sia (Alfonso, Lucrezia, Gennaro)
02. Guai se ti sfugge un moto (Alfonso, Lucrezia, Gennaro)
03. Infelice! (Lucrezia, Gennaro)
04. Atto II. Rischiarata e la finestra (Rustighello, Coro)
05. Sei tu? (Gennaro, Orsini)
06. Minacciata e la mia vita (Gennaro, Orsini, Coro, Rustighello)
07. Onde a lei ti mostri grato (Orsini, Gennaro)
08. Va, se vuoi. Tentar m'e caro (Orsini, Gennaro, Coro, Rustighello)
09. Stolti! Ei corre alla Negroni (Rustighello, Coro)
10. Viva il Madera! Viva! Vivq! (Liverotto, Vitellozzo, Gazella, Petrucci, Gubetta, Gennaro, Orsini, Coro)
11. Il segreto per esser felici (Orsini, Liverotto, Vitellozzo, Petrucci, Gazella, Gubetta, Coro, Voices, Gennaro)
12. La gioia de' profane (Voices, Orsini, Gennaro, Coro, Lucrezia, Liverotto, Vitellozzo, Petrucci, Gazella)
13. Tu pur qui? Non sei fuggiti? (Lucrezia, Gennaro)
14. M'odi, ah! m'odi, io non t'imploro (Lucrezia, Gennaro)
15. Maffio muore (Gennaro, Lucrezia, Alfonso)
16. Era desso il figlio moi (Lucrezia, Coro)
17. Bonus. Verdi - Il Corsaro. Atto I. Romanza: Egli non riede ancora! (Medora)
18. Non so le tetre innagini (Medora)
19. Scena e Duetto: E pur tristo, o Medora (Corrado, Medora)
20. No, tu non sai comprendere (Medora, Corrado)
21. Tornerai, ma forse spenta (Medora, Corrado)

Exact Audio Copy V1.0 beta 1 from 15. November 2010

EAC extraction logfile from 6. May 2011, 15:08

Pierre-Michel LeConte, V.Papantoniou, J.van Dam, J.Carreras / Donizetti - Lucrezia Borgia CD1

Used drive : Optiarc DVD RW AD-7173A Adapter: 1 ID: 1

Read mode : Secure
Utilize accurate stream : Yes
Defeat audio cache : Yes
Make use of C2 pointers : Yes

Read offset correction

: 48
Overread into Lead-In and Lead-Out : No
Fill up missing offset samples with silence : Yes
Delete leading and trailing silent blocks : No
Null samples used in CRC calculations : Yes
Used interface
: Native Win32 interface for Win NT & 2000

Used output format : User Defined Encoder
Selected bitrate : 192 kBit/s
Quality : High
Add ID3 tag : No
Command line compressor : C:\Program Files\Exact Audio Copy\Flac\flac.exe
Additional command line options : -T "DATE=%y" -T "GENRE=%m" -8 -V %s

TOC of the extracted CD Track | Start | Length | Start sector | End sector
--1 | 0:00.00 | 5:16.37 | 0 | 23736 2 | 5:16.37 | 4:23.02 | 23737 | 43463 3 | 9:39.39 | 1:57.33 | 43464 | 52271 4 | 11:36.72 | 5:06.45 | 52272 | 75266 5 | 16:43.42 | 6:08.53 | 75267 | 102919 6 | 22:52.20 | 2:51.62 | 102920 | 115806 7 | 25:44.07 | 6:45.25 | 115807 | 146206 8 | 32:29.32 | 1:35.25 | 146207 | 153356 9 | 34:04.57 | 5:13.10 | 153357 | 176841
10 | 39:17.67 | 2:08.26 | 176842 | 186467
11 | 41:26.18 | 2:23.37 | 186468 | 197229
12 | 43:49.55 | 3:55.02 | 197230 | 214856
13 | 47:44.57 | 2:02.45 | 214857 | 224051
14 | 49:47.27 | 4:05.58 | 224052 | 242484
15 | 53:53.10 | 1:41.05 | 242485 | 250064
16 | 55:34.15 | 4:23.00 | 250065 | 269789
17 | 59:57.15 | 3:35.34 | 269790 | 285948
18 | 63:32.49 | 1:39.51 | 285949 | 293424
19 | 65:12.25 | 3:25.67 | 293425 | 308866

Range status and errors

Selected range Filename C:\Users\Desktop\Donizetti - Lucrezia Borgia CD1.wav Peak level 97.6 %
Extraction speed 0.0 X
Range quality 100.0 %
Test CRC 412D8EEE
Copy CRC 412D8EEE
Copy OK

No errors occurred


AccurateRip summary

Track 1 not present in database
Track 2 not present in database
Track 3 not present in database
Track 4 not present in database
Track 5 not present in database
Track 6 not present in database
Track 7 not present in database
Track 8 not present in database
Track 9 not present in database
Track 10 not present in database
Track 11 not present in database
Track 12 not present in database
Track 13 not present in database
Track 14 not present in database
Track 15 not present in database
Track 16 not present in database
Track 17 not present in database
Track 18 not present in database
Track 19 not present in database

None of the tracks are present in the AccurateRip database

End of status report



Exact Audio Copy V1.0 beta 1 from 15. November 2010

EAC extraction logfile from 6. May 2011, 16:50

Pierre-Michel LeConte, V.Papantoniou, J.van Dam, J.Carreras / Donizetti - Lucrezia Borgia CD2

Used drive : Optiarc DVD RW AD-7173A Adapter: 1 ID: 1

Read mode : Secure
Utilize accurate stream : Yes
Defeat audio cache : Yes
Make use of C2 pointers : Yes

Read offset correction

: 48
Overread into Lead-In and Lead-Out : No
Fill up missing offset samples with silence : Yes
Delete leading and trailing silent blocks : No
Null samples used in CRC calculations : Yes
Used interface
: Native Win32 interface for Win NT & 2000

Used output format : User Defined Encoder
Selected bitrate : 192 kBit/s
Quality : High
Add ID3 tag : No
Command line compressor : C:\Program Files\Exact Audio Copy\Flac\flac.exe
Additional command line options : -T "DATE=%y" -T "GENRE=%m" -8 -V %s

TOC of the extracted CD Track | Start | Length | Start sector | End sector
--1 | 0:00.00 | 5:03.49 | 0 | 22773 2 | 5:03.49 | 3:25.41 | 22774 | 38189 3 | 8:29.15 | 2:59.35 | 38190 | 51649 4 | 11:28.50 | 3:07.23 | 51650 | 65697 5 | 14:35.73 | 1:05.62 | 65698 | 70634 6 | 15:41.60 | 1:40.33 | 70635 | 78167 7 | 17:22.18 | 3:03.05 | 78168 | 91897 8 | 20:25.23 | 2:45.45 | 91898 | 104317 9 | 23:10.68 | 1:55.70 | 104318 | 113012
10 | 25:06.63 | 7:42.10 | 113013 | 147672
11 | 32:48.73 | 4:00.31 | 147673 | 165703
12 | 36:49.29 | 3:43.34 | 165704 | 182462
13 | 40:32.63 | 4:10.70 | 182463 | 201282
14 | 44:43.58 | 4:11.22 | 201283 | 220129
15 | 48:55.05 | 4:54.15 | 220130 | 242194
16 | 53:49.20 | 6:53.47 | 242195 | 273216
17 | 60:42.67 | 1:53.06 | 273217 | 281697
18 | 62:35.73 | 4:06.20 | 281698 | 300167
19 | 66:42.18 | 1:38.73 | 300168 | 307590
20 | 68:21.16 | 3:27.32 | 307591 | 323147
21 | 71:48.48 | 2:19.18 | 323148 | 333590

Range status and errors

Selected range Filename C:\Users\Desktop\Donizetti - Lucrezia Borgia CD2.wav Peak level 100.0 %
Extraction speed 0.0 X
Range quality 100.0 %
Test CRC 3A51D1DA
Copy CRC 3A51D1DA
Copy OK

No errors occurred


AccurateRip summary

Track 1 not present in database
Track 2 not present in database
Track 3 not present in database
Track 4 not present in database
Track 5 not present in database
Track 6 not present in database
Track 7 not present in database
Track 8 not present in database
Track 9 not present in database
Track 10 not present in database
Track 11 not present in database
Track 12 not present in database
Track 13 not present in database
Track 14 not present in database
Track 15 not present in database
Track 16 not present in database
Track 17 not present in database
Track 18 not present in database
Track 19 not present in database
Track 20 not present in database
Track 21 not present in database

None of the tracks are present in the AccurateRip database

End of status report
DOWNLOAD LINKS:
Buy Premium To Support Me & Get Resumable Support & Max Speed


Links are Interchangeable - No Password - Single Extraction

Direct Download

Tags: Donizetti, Lucrezia, Borgia, Pierre, LeConte

Donizetti: Lucrezia Borgia (Pierre-Michel LeConte) [2006] Download via Hotfile Rapidshare Fileserve Megaupload & FileSonic, Donizetti: Lucrezia Borgia (Pierre-Michel LeConte) [2006] free torrent downloads included crack, serial, keygen.


Attention!Information

Members of Guest cannot leave comments.