Sid Rumpo - First Offense (1974) [Remastered 1994]

Download Now

Sid Rumpo - First Offense (1974) [Remastered 1994]

Sid Rumpo - First Offense (1974) [Remastered 1994]
EAC Rip | FLAC (tracks & cue & log) | 255 MB | MP3 CBR 320 kbps | 109 MB | Scans | 00:39:53
Genre: Blues Rock / Pub-Rock / Hard Rock | Country: Australia | Label: Mushroom Records | D19761

"Sid Rumpo was a fairly polished pub-rock band which formed in Perth in 1971 and unfortunately disappeared into the mists of time in 1974. They are probably best remembered as one of a long line of Mick Elliot's bands. Mick is an accomplished blues-rock guitarist that has been around the Aussie blues & rock scene forever (in bands like Levi Smiths Clefs, Jim Keays' Southern Cross, They Accidentally Sued Themselves and Western Flyer), but rarely seemed to stay in a band long enough to record more than one album."



Tracklist:

01. Spotlight
02. Breaking My Back
03. Spider Curry
04. Sailing
05. The Riddle
06. Don't Bug Me Boogie
07. Song With No Trees
08. Poor Mans Orange

Exact Audio Copy V0.99 prebeta 4 from 23. January 2008
EAC extraction logfile from 26. May 2012, 13:58
Sid Rumpo / First Offense
Used drive : HL-DT-STDVD-RAM GSA-H58N Adapter: 0 ID: 0
Read mode : Secure
Utilize accurate stream : Yes
Defeat audio cache : Yes
Make use of C2 pointers : No
Read offset correction

: 102
Overread into Lead-In and Lead-Out : No
Fill up missing offset samples with silence : Yes
Delete leading and trailing silent blocks : No
Null samples used in CRC calculations : Yes
Used interface
: Installed external ASPI interface
Gap handling
: Appended to previous track
Used output format : User Defined Encoder
Selected bitrate : 1024 kBit/s
Quality : High
Add ID3 tag : No
Command line compressor : C:\Arquivos de programas\Exact Audio Copy\Flac\flac.exe
Additional command line options : -8 -A tukey(0.25) -A gauss(0.1875) -b 4096 -V -T "artist=%a" -T "title=%t" -T "album=%g" -T "date=%y" -T "tracknumber=%n" -T "genre=%m" %s --sector-align
TOC of the extracted CD
Track | Start | Length | Start sector | End sector
--1 | 0:00.00 | 5:56.35 | 0 | 267342 | 5:56.35 | 4:14.22 | 26735 | 458063 | 10:10.57 | 1:43.68 | 45807 | 535994 | 11:54.50 | 8:31.37 | 53600 | 919615 | 20:26.12 | 5:14.08 | 91962 | 1155196 | 25:40.20 | 3:59.25 | 115520 | 1334697 | 29:39.45 | 8:13.50 | 133470 | 1704948 | 37:53.20 | 2:00.67 | 170495 | 179561
Track 1
Filename C:\Documents and Settings\Nelson\Meus documentos\My EAC\01 - Sid Rumpo - Spotlight.wav
Pre-gap length 0:00:02.00
Peak level 100.0 %
Track quality 100.0 %
Test CRC 6846CED2
Copy CRC 6846CED2
Copy OK
Track 2
Filename C:\Documents and Settings\Nelson\Meus documentos\My EAC\02 - Sid Rumpo - Breakin' My Back.wav
Peak level 100.0 %
Track quality 100.0 %
Test CRC A8F00B85
Copy CRC A8F00B85
Copy OK
Track 3
Filename C:\Documents and Settings\Nelson\Meus documentos\My EAC\03 - Sid Rumpo - Spider Curry.wav
Peak level 37.2 %
Track quality 100.0 %
Test CRC DC53BD72
Copy CRC DC53BD72
Copy OK
Track 4
Filename C:\Documents and Settings\Nelson\Meus documentos\My EAC\04 - Sid Rumpo - Sailing.wav
Peak level 87.5 %
Track quality 100.0 %
Test CRC 9A30D845
Copy CRC 9A30D845
Copy OK
Track 5
Filename C:\Documents and Settings\Nelson\Meus documentos\My EAC\05 - Sid Rumpo - The Riddle.wav
Peak level 100.0 %
Track quality 100.0 %
Test CRC CEA62A98
Copy CRC CEA62A98
Copy OK
Track 6
Filename C:\Documents and Settings\Nelson\Meus documentos\My EAC\06 - Sid Rumpo - Don't Bug Me Boogie.wav
Peak level 91.9 %
Track quality 100.0 %
Test CRC BD29BBF1
Copy CRC BD29BBF1
Copy OK
Track 7
Filename C:\Documents and Settings\Nelson\Meus documentos\My EAC\07 - Sid Rumpo - Song With No Trees.wav
Peak level 86.0 %
Track quality 100.0 %
Test CRC 63EEBC19
Copy CRC 63EEBC19
Copy OK
Track 8
Filename C:\Documents and Settings\Nelson\Meus documentos\My EAC\08 - Sid Rumpo - Poor Man's Orange.wav
Peak level 48.1 %
Track quality 99.9 %
Test CRC AD1E21BE
Copy CRC AD1E21BE
Copy OK
No errors occurred
End of status report

Personnel

Owen Hughes - bass
Mick Elliot - red guitar, vocals
Noel Herridge - drums, congas
Ken Wallace - accoustic & electric piano, percussion
Robert Searls - vocals, guitar

All thanks to original releaser

Sid Rumpo - First Offense (1974) [Remastered 1994]

Sid Rumpo - First Offense (1974) [Remastered 1994]


DOWNLOAD LINKS:
Buy Premium To Support Me & Get Resumable Support & Max Speed


Links are Interchangeable - No Password - Single Extraction

Direct Download

Tags: Offense, Remastered

Sid Rumpo - First Offense (1974) [Remastered 1994] Download via Hotfile Rapidshare Fileserve Megaupload & FileSonic, Sid Rumpo - First Offense (1974) [Remastered 1994] free torrent downloads included crack, serial, keygen.


Attention!Information

Members of Guest cannot leave comments.